Начать новую темуОтветить на тему  [ 1 сообщение ] 
Торрент файл
Размер: 29.17 GB • Зарегистрирован: 6 месяцев • Статус: * Не проверено
Скачан: 17 раз • Желающих скачать: 0 • Поблагодарили: 5 раз
 Раздают: 0  |  0 KB/s  ]   Качают: 0  |  0 KB/s  ] 
 Полного источника не было 22 минуты 
Сообщения
 Добавлено: 2016-05-08 18:38
RG-ELEKTRO
Аватара пользователя
Стаж: 2 года 3 месяца
Сообщений: 7928
Спасибок: 53759
Лайков: 3304
Игра на понижение / The Big Short

Изображение

Изображение


Год выпуска: 2015
Страна: США (Plan B Entertainment, Regency Enterprises)
Жанр: драма, биография
Продолжительность: 02:10:09
Перевод: Дублированный [Лицензия Blu-Ray CEE]

Режиссёр: Адам МакКей
В ролях: Кристиан Бэйл, Стив Карелл, Райан Гослинг, Брэд Питт, Мелисса Лео, Хамиш Линклэйтер, Джон Магаро, Рейф Сполл, Джереми Стронг, Мариса Томей
Описание: Когда речь идет о деньгах, совесть молчит. А уж если речь об огромных деньгах!.. Это основанная на реальных событиях история нескольких провидцев, которые независимо друг от друга предсказали мировой экономический кризис 2008 года задолго до того, как о нем зашептались в кулуарах на Уолл-стрит. И предсказав, стали на нем зарабатывать. Сами того не желая.

Изображение Изображение
Качество: BDRemux 1080p
Формат: MKV
Видео кодек: MPEG-4 AVC
Аудио кодек: AC3 / DTS
Видео: MPEG-4 AVC, 1920x1080, 23.7 Kbit/s, 23.976 fps
Аудио #1: 48 kHz, AC3, 5.1, 640 Kbps [дублированный [Лицензия Blu-Ray CEE]]
Аудио #2: 48 kHz, DTS, 5.1, 1510 Kbps | Авторский одноголосый (закадровый), А. Матвеев (Doctor. Joker) |
Аудио #3: 48 kHz, AC3, 5.1, 640 Kbps | Авторский одноголосый (закадровый), А. Матвеев (Doctor. Joker) |
Аудио #4: Ukrainian : 48 kHz, AC3, 5.1, 640 Kbps | Дублированный
Аудио #5: English: 48 kHz, DTS:X, 7.1, 4958 kbps
Субтитры: Русские (forced), русские (full), английские (full, |srt, sdh|)

"MI"
Общее
Уникальный идентификатор : 195452495636184422643465258404279824991 (0x930AC80A2A0CFFD0970D185DFFC9325F)
Полное имя : G:VideoThe.Big.Short..2015..BDREMUX.1080p.ExKinoRay.mkv
Формат : Matroska
Версия формата : Version 4 / Version 2
Размер файла : 29,2 Гбайт
Продолжительность : 2 ч. 10 м.
Режим общего битрейта : Переменный
Общий поток : 32,1 Мбит/сек
Название фильма : The.Big.Short..2015..BDREMUX.1080p.ExKinoRay
Дата кодирования : UTC 2016-05-08 08:30:43
Программа кодирования : mkvmerge v8.3.0 ('Over the Horizon') 64bit
Библиотека кодирования : libebml v1.3.1 + libmatroska v1.4.2

Видео
Идентификатор : 1
Формат : AVC
Формат/Информация : Advanced Video Codec
Профиль формата : High@L4.1
Параметр CABAC формата : Да
Параметр ReFrames формата : 4 кадра
Идентификатор кодека : V_MPEG4/ISO/AVC
Продолжительность : 2 ч. 10 м.
Вид битрейта : Переменный
Битрейт : 23,7 Мбит/сек
Максимальный битрейт : 28,5 Мбит/сек
Ширина : 1920 пикселей
Высота : 1080 пикселей
Соотношение сторон : 16:9
Режим частоты кадров : Постоянный
Частота кадров : 23,976 (24000/1001) кадра/сек
Цветовое пространство : YUV
Субдискретизация насыщенности : 4:2:0
Битовая глубина : 8 бит
Тип развёртки : Прогрессивная
Бит/(Пиксели*Кадры) : 0.476
Размер потока : 21,5 Гбайт (74%)
Заголовок : The.Big.Short.2015.BDREMUX.1080p.ExKinoRay.***селезень***
Язык : English
Default : Нет
Forced : Нет

Аудио #1
Идентификатор : 2
Формат : AC-3
Формат/Информация : Audio Coding 3
Расширение режима : CM (complete main)
Параметр Endianness формата : Big
Идентификатор кодека : A_AC3
Продолжительность : 2 ч. 10 м.
Вид битрейта : Постоянный
Битрейт : 640 Кбит/сек
Каналы : 6 каналов
Расположение каналов : Front: L C R, Side: L R, LFE
Частота : 48,0 КГц
Частота кадров : 31,250 кадров/сек (1536 spf)
Метод сжатия : С потерями
Размер потока : 596 Мбайт (2%)
Заголовок : DUB [Blu-ray CEE]
Язык : Russian
Default : Да
Forced : Нет

Аудио #2
Идентификатор : 3
Формат : DTS
Формат/Информация : Digital Theater Systems
Режим : 16
Параметр Endianness формата : Big
Идентификатор кодека : A_DTS
Продолжительность : 2 ч. 10 м.
Вид битрейта : Постоянный
Битрейт : 1509 Кбит/сек
Каналы : 6 каналов
Расположение каналов : Front: L C R, Side: L R, LFE
Частота : 48,0 КГц
Частота кадров : 93,750 кадра/сек (512 spf)
Битовая глубина : 24 бит
Метод сжатия : С потерями
Размер потока : 1,37 Гбайт (5%)
Заголовок : AVO [Matveev,DTS]
Язык : Russian
Default : Нет
Forced : Нет

Аудио #3
Идентификатор : 4
Формат : AC-3
Формат/Информация : Audio Coding 3
Расширение режима : CM (complete main)
Параметр Endianness формата : Big
Идентификатор кодека : A_AC3
Продолжительность : 2 ч. 10 м.
Вид битрейта : Постоянный
Битрейт : 640 Кбит/сек
Каналы : 6 каналов
Расположение каналов : Front: L C R, Side: L R, LFE
Частота : 48,0 КГц
Частота кадров : 31,250 кадров/сек (1536 spf)
Метод сжатия : С потерями
Размер потока : 596 Мбайт (2%)
Заголовок : AVO [Matveev]
Язык : Russian
Default : Нет
Forced : Нет

Аудио #4
Идентификатор : 5
Формат : AC-3
Формат/Информация : Audio Coding 3
Расширение режима : CM (complete main)
Параметр Endianness формата : Big
Идентификатор кодека : A_AC3
Продолжительность : 2 ч. 10 м.
Вид битрейта : Постоянный
Битрейт : 640 Кбит/сек
Каналы : 6 каналов
Расположение каналов : Front: L C R, Side: L R, LFE
Частота : 48,0 КГц
Частота кадров : 31,250 кадров/сек (1536 spf)
Метод сжатия : С потерями
Размер потока : 596 Мбайт (2%)
Заголовок : DUB [Blu-ray CEE]
Язык : Ukrainian
Default : Нет
Forced : Нет

Аудио #5
Идентификатор : 6
Формат : DTS
Формат/Информация : Digital Theater Systems
Профиль формата : X / MA / Core
Режим : 16
Параметр Endianness формата : Big
Идентификатор кодека : A_DTS
Продолжительность : 2 ч. 10 м.
Вид битрейта : Переменный / Переменный / Постоянный
Битрейт : 4958 Кбит/сек / 4958 Кбит/сек / 1509 Кбит/сек
Каналы : Object Based / 8 каналов / 6 каналов
Расположение каналов : Object Based / Front: L C R, Side: L R, Back: L R, LFE / Front: L C R, Side: L R, LFE
Частота : / 48,0 КГц / 48,0 КГц
Частота кадров : 93,750 кадра/сек (512 spf)
Битовая глубина : / 24 бит / 24 бит
Метод сжатия : / Lossless / Lossy
Размер потока : 4,51 Гбайт (15%)
Заголовок : Original
Язык : English
Default : Нет
Forced : Нет

Текст #1
Идентификатор : 7
Формат : UTF-8
Идентификатор кодека : S_TEXT/UTF8
Идентификатор кодека/Информация : UTF-8 Plain Text
Продолжительность : 2 ч. 2 м.
Битрейт : 6 бит/сек
Count of elements : 116
Размер потока : 5,87 Кбайт (0%)
Заголовок : forced
Язык : Russian
Default : Да
Forced : Нет

Текст #2
Идентификатор : 8
Формат : UTF-8
Идентификатор кодека : S_TEXT/UTF8
Идентификатор кодека/Информация : UTF-8 Plain Text
Продолжительность : 2 ч. 3 м.
Битрейт : 165 бит/сек
Count of elements : 2440
Размер потока : 149 Кбайт (0%)
Заголовок : full
Язык : Russian
Default : Нет
Forced : Нет

Текст #3
Идентификатор : 9
Формат : UTF-8
Идентификатор кодека : S_TEXT/UTF8
Идентификатор кодека/Информация : UTF-8 Plain Text
Продолжительность : 2 ч. 0 м.
Битрейт : 94 бит/сек
Count of elements : 2307
Размер потока : 83,7 Кбайт (0%)
Заголовок : Original
Язык : English
Default : Нет
Forced : Нет

Текст #4
Идентификатор : 10
Формат : UTF-8
Идентификатор кодека : S_TEXT/UTF8
Идентификатор кодека/Информация : UTF-8 Plain Text
Продолжительность : 2 ч. 3 м.
Битрейт : 98 бит/сек
Count of elements : 2546
Размер потока : 89,1 Кбайт (0%)
Заголовок : SDH
Язык : English
Default : Нет
Forced : Нет

Меню
00:00:00.000 : en:Chapter 01
00:09:24.564 : en:Chapter 02
00:15:47.571 : en:Chapter 03
00:19:03.058 : en:Chapter 04
00:25:59.516 : en:Chapter 05
00:28:49.978 : en:Chapter 06
00:37:24.242 : en:Chapter 07
00:42:54.488 : en:Chapter 08
00:49:36.682 : en:Chapter 09
00:57:01.835 : en:Chapter 10
01:02:09.892 : en:Chapter 11
01:10:52.957 : en:Chapter 12
01:17:03.243 : en:Chapter 13
01:20:57.102 : en:Chapter 14
01:29:53.221 : en:Chapter 15
01:34:37.046 : en:Chapter 16
01:41:15.903 : en:Chapter 17
01:45:30.490 : en:Chapter 18
01:49:34.651 : en:Chapter 19
01:55:16.075 : en:Chapter 20
02:03:44.500 : en:Chapter 21
Свернуть

Скриншоты
Изображение
Изображение
Изображение
Свернуть
Изображение


Изображение Изображение
_________________
Не ищите меня в "ВКонтакте", в "Одноклассниках" меня нет - я на трекерах сижу!
Не в сети
Профиль  
Начать новую темуОтветить на тему  [ 1 сообщение ] 
Вы не можете начинать темы
Вы не можете отвечать на сообщения
Вы не можете редактировать свои сообщения
Вы не можете удалять свои сообщения