Начать новую темуОтветить на тему  [ 1 сообщение ] 
Торрент файл
Размер: 9.92 GB • Зарегистрирован: 7 месяцев • Статус: * Не проверено
Скачан: 2 раза • Желающих скачать: 0 • Поблагодарили: 2 раза
 Раздают: 0  |  0 KB/s  ]   Качают: 0  |  0 KB/s  ] 
 Полного источника не было 5 месяцев 16 дней 
Сообщения
 Добавлено: 2016-04-30 18:51
RG-ELEKTRO
Аватара пользователя
Стаж: 2 года 3 месяца
Сообщений: 7928
Спасибок: 53752
Лайков: 3304
Из Китая с любовью / Gwok chaan Ling Ling Chat

Изображение

Изображение


Год выпуска: 1994
Страна: Гонконг (Win's Movie Productions Ltd.)
Жанр: боевик, триллер, комедия
Продолжительность: 01:23:38
Перевод: Авторский одноголосый (Живов Юрий) + Авторский одноголосый (Живов Юрий) + Авторский одноголосый (Горчаков Василий) + Оригинальная звуковая дорожка
Субтитры: Русские, Английские

Режиссёр: Стивен Чоу, Лик-Чи Ли
В ролях: Стивен Чоу, Анита Юэнь, Вонг Кам-Конг, Полин Чан, Вонг Ят-Фей, Джо Ченг, Индра Лич, Лау Кар-Йинг, Ли Лик-Чи, Тони Леунг Сиу-Хунг, Ю Ронг-Гуанг...
Описание: Герой Стивена Чоу — бывший суперагент, ныне работающий мясником в небольшой деревеньке. Но дела зовут, и контора вызывает его обратно в свои ряды в связи с похищением раритетного черепа какого-то ископаемого. Он приезжает на место, но выясняется, что он — только подставное лицо, и продажный начальник поручил его связной убить его по прибытии. Но тут, естественно, любовь-морковь, так что начальнику-подлецу придется обломаться…

Изображение Изображение
Качество: BDRip 1080p
Формат: MKV
Видео кодек: MPEG-4 AVC
Аудио кодек: AC3 / DTS
Видео: MPEG-4 AVC, 1920x1080, 14000 kbps, 23,976 fps
Аудио #1: AC3, 6 ch, 640 kbps [Авторский одноголосый (Живов Юрий)]
Аудио #2: AC3, 6 ch, 640 kbps [Авторский одноголосый (Живов Юрий)]
Аудио #3: AC3, 2 ch, 192 kbps [Авторский одноголосый (Горчаков Василий)]
Аудио #4: DTS, 6 ch, 1509 kbps (Chi) [Оригинальная звуковая дорожка]
Субтитры: Русские, Английские

"MI"
x264 [info]: frame I:668 Avg QP:18.59 size:208930
x264 [info]: frame P:25955 Avg QP:21.01 size:124504
x264 [info]: frame B:93689 Avg QP:23.56 size: 57720
x264 [info]: consecutive B-frames: 2.5% 2.7% 6.5% 15.1% 9.6% 59.2% 2.8% 0.5% 0.3% 0.2% 0.2% 0.1% 0.3%

Общее
Уникальный идентификатор : 234875289458218403793992018287129464300 (0xB0B355D74C02C86BBA78F0F1B3AF0DEC)
Полное имя : Из Китая с любовью (Gwok chaan Ling Ling Chat) 1994 BDRip 1080p.mkv
Формат : Matroska
Версия формата : Version 2
Размер файла : 9,92 Гбайт
Продолжительность : 1 ч. 23 м.
Общий поток : 17,0 Мбит/сек
Дата кодирования : UTC 2016-04-30 10:15:23
Программа кодирования : mkvmerge v4.0.0 ('The Stars were mine') сборка от Jun 6 2010 16:18:42
Библиотека кодирования : libebml v1.0.0 + libmatroska v1.0.0

Видео
Идентификатор : 1
Формат : AVC
Формат/Информация : Advanced Video Codec
Профиль формата : High@L4.1
Параметр CABAC формата : Да
Параметр ReFrames формата : 4 кадра
Идентификатор кодека : V_MPEG4/ISO/AVC
Продолжительность : 1 ч. 23 м.
Битрейт : 14,0 Мбит/сек
Ширина : 1920 пикселей
Высота : 1080 пикселей
Соотношение сторон : 16:9
Режим частоты кадров : Постоянный
Частота кадров : 23,976 кадра/сек
Цветовое пространство : YUV
Субдискретизация насыщенности : 4:2:0
Битовая глубина : 8 бит
Тип развёртки : Прогрессивная
Бит/(Пиксели*Кадры) : 0.282
Размер потока : 7,98 Гбайт (80%)
Библиотека кодирования : x264 core 146 r2538 121396c
Настройки программы : cabac=1 / ref=4 / deblock=1:-3:-3 / analyse=0x3:0x133 / me=umh / subme=11 / psy=1 / psy_rd=1.10:0.16 / mixed_ref=1 / me_range=32 / chroma_me=1 / trellis=2 / 8x8dct=1 / cqm=0 / deadzone=21,11 / fast_pskip=0 / chroma_qp_offset=-3 / threads=12 / lookahead_threads=2 / sliced_threads=0 / nr=0 / decimate=0 / interlaced=0 / bluray_compat=0 / constrained_intra=0 / bframes=12 / b_pyramid=2 / b_adapt=2 / b_bias=0 / direct=3 / weightb=1 / open_gop=0 / weightp=2 / keyint=240 / keyint_min=24 / scenecut=40 / intra_refresh=0 / rc_lookahead=60 / rc=2pass / mbtree=0 / bitrate=14000 / ratetol=1.0 / qcomp=0.60 / qpmin=0 / qpmax=69 / qpstep=4 / cplxblur=20.0 / qblur=0.5 / vbv_maxrate=50000 / vbv_bufsize=62500 / nal_hrd=none / filler=0 / ip_ratio=1.40 / pb_ratio=1.30 / aq=1:0.90
Язык : Chinese
Default : Нет
Forced : Нет

Аудио #1
Идентификатор : 2
Формат : AC-3
Формат/Информация : Audio Coding 3
Расширение режима : CM (complete main)
Параметр Endianness формата : Big
Идентификатор кодека : A_AC3
Продолжительность : 1 ч. 23 м.
Вид битрейта : Постоянный
Битрейт : 640 Кбит/сек
Каналы : 6 каналов
Расположение каналов : Front: L C R, Side: L R, LFE
Частота : 48,0 КГц
Метод сжатия : С потерями
Размер потока : 383 Мбайт (4%)
Заголовок : AVO Живов Юрий Викторович (Cantonese)
Язык : Russian
Default : Нет
Forced : Нет

Аудио #2
Идентификатор : 3
Формат : AC-3
Формат/Информация : Audio Coding 3
Расширение режима : CM (complete main)
Параметр Endianness формата : Big
Идентификатор кодека : A_AC3
Продолжительность : 1 ч. 23 м.
Вид битрейта : Постоянный
Битрейт : 640 Кбит/сек
Каналы : 6 каналов
Расположение каналов : Front: L C R, Side: L R, LFE
Частота : 48,0 КГц
Метод сжатия : С потерями
Размер потока : 383 Мбайт (4%)
Заголовок : AVO Живов Юрий Викторович (Mandarin)
Язык : Russian
Default : Нет
Forced : Нет

Аудио #3
Идентификатор : 4
Формат : AC-3
Формат/Информация : Audio Coding 3
Расширение режима : CM (complete main)
Параметр Endianness формата : Big
Идентификатор кодека : A_AC3
Продолжительность : 1 ч. 23 м.
Вид битрейта : Постоянный
Битрейт : 192 Кбит/сек
Каналы : 2 канала
Расположение каналов : Front: L R
Частота : 48,0 КГц
Метод сжатия : С потерями
Размер потока : 115 Мбайт (1%)
Заголовок : AVO Горчаков Василий Овидиевич (English)
Язык : Russian
Default : Нет
Forced : Нет

Аудио #4
Идентификатор : 5
Формат : DTS
Формат/Информация : Digital Theater Systems
Режим : 16
Параметр Endianness формата : Big
Идентификатор кодека : A_DTS
Продолжительность : 1 ч. 23 м.
Вид битрейта : Постоянный
Битрейт : 1509 Кбит/сек
Каналы : 6 каналов
Расположение каналов : Front: L C R, Side: L R, LFE
Частота : 48,0 КГц
Битовая глубина : 24 бит
Метод сжатия : С потерями
Размер потока : 903 Мбайт (9%)
Заголовок : Cantonese
Язык : Chinese
Default : Нет
Forced : Нет

Текст #1
Идентификатор : 6
Формат : UTF-8
Идентификатор кодека : S_TEXT/UTF8
Идентификатор кодека/Информация : UTF-8 Plain Text
Язык : Russian
Default : Нет
Forced : Нет

Текст #2
Идентификатор : 7
Формат : UTF-8
Идентификатор кодека : S_TEXT/UTF8
Идентификатор кодека/Информация : UTF-8 Plain Text
Язык : English
Default : Нет
Forced : Нет
Свернуть

Скриншоты
Изображение
Изображение
Изображение
Изображение
Свернуть
Изображение


Изображение Изображение
Не в сети
Профиль  
Начать новую темуОтветить на тему  [ 1 сообщение ] 
Вы не можете начинать темы
Вы не можете отвечать на сообщения
Вы не можете редактировать свои сообщения
Вы не можете удалять свои сообщения