Начать новую темуОтветить на тему  [ 1 сообщение ] 
Торрент файл
Размер: 2.43 GB • Зарегистрирован: 1 год • Статус: * Не проверено
Скачан: 16 раз • Желающих скачать: 0 • Поблагодарили: 2 раза
 Раздают: 0  |  0 KB/s  ]   Качают: 0  |  0 KB/s  ] 
 Полного источника не было 5 месяцев 
Сообщения
 Добавлено: 2015-12-07 08:59
RG-ELEKTRO
Аватара пользователя
Стаж: 2 года 3 месяца
Сообщений: 7928
Спасибок: 53783
Лайков: 3304
Жена по совместительству


Изображение


Год выпуска: 2015
Страна: Россия (Кинокомпания Русское)
Жанр: Мелодрама
Продолжительность: 01:30:08

Режиссёр: Андрей Записов
В ролях: Ольга Сухарева, Анна Якунина, Александр Солдаткин, Евгений Ганелин, Александр Никитин, Артём Падалка, Ксения Разина, Ася Калинина
Описание: Нина, молодая вдова и мама двух малолетних детей устраивается «домоправительницей» загородного дома к Анне, энергичной бизнесвумен. Сын Анны, Игорь, по виду типичный представитель «золотой» столичной молодёжи, совершает поступок – идет в военкомат с просьбой призвать его. Чтобы уберечь его от службы в армии, Анна вынуждает сына заключить фиктивный брак с Ниной: женатый мужчина с двумя детьми призыву не подлежит. Нина бескорыстно соглашается помочь Анне, которую уважает.

Изображение Изображение
Качество: HDTVRip 720p
Формат: MKV
Видео кодек: MPEG-4 AVC
Аудио кодек: AC3
Видео: 1280х720 (16:9), 25 fps, AVC MPEG-4 (x264), High@L4.1 3667 kbps avg, 0.159 bit/pixel
Аудио #1: 48 kHz, AC3, 2 ch, 192 kbps avg

"MI"
General
Unique ID : 205606012810467103042207741821250642334 (0x9AAE4716271BD5608C998ED5C06B219E)
Complete name : D:\фильмы\Zhena.po.sovmestitelstvu.2015.HDTVRip.(720p).MediaClub.mkv
Format : Matroska
Format version : Version 2
File size : 2.43 GiB
Duration : 1h 30mn
Overall bit rate : 3 860 Kbps
Encoded date : UTC 2015-12-06 23:51:52
Writing application : mkvmerge v7.8.0 ('River Man') 32bit built on Apr 3 2015 12:11:22
Writing library : libebml v1.3.1 + libmatroska v1.4.2

Video
ID : 1
Format : AVC
Format/Info : Advanced Video Codec
Format profile : High@L4.1
Format settings, CABAC : Yes
Format settings, ReFrames : 9 frames
Codec ID : V_MPEG4/ISO/AVC
Duration : 1h 30mn
Bit rate : 3 667 Kbps
Width : 1 280 pixels
Height : 720 pixels
Display aspect ratio : 16:9
Frame rate mode : Constant
Frame rate : 25.000 fps
Color space : YUV
Chroma subsampling : 4:2:0
Bit depth : 8 bits
Scan type : Progressive
Bits/(Pixel*Frame) : 0.159
Stream size : 2.26 GiB (93%)
Writing library : x264 core 146 r2538 121396c
Encoding settings : cabac=1 / ref=9 / deblock=1:-3:3 / analyse=0x3:0x113 / me=umh / subme=11 / psy=1 / psy_rd=1.00:0.20 / mixed_ref=1 / me_range=32 / chroma_me=1 / trellis=2 / 8x8dct=1 / cqm=0 / deadzone=21,11 / fast_pskip=0 / chroma_qp_offset=-3 / threads=12 / lookahead_threads=3 / sliced_threads=0 / nr=0 / decimate=0 / interlaced=0 / bluray_compat=0 / constrained_intra=0 / bframes=12 / b_pyramid=2 / b_adapt=2 / b_bias=0 / direct=1 / weightb=1 / open_gop=0 / weightp=2 / keyint=250 / keyint_min=25 / scenecut=40 / intra_refresh=0 / rc_lookahead=60 / rc=2pass / mbtree=0 / bitrate=3667 / ratetol=1.0 / qcomp=0.60 / qpmin=0 / qpmax=69 / qpstep=4 / cplxblur=20.0 / qblur=0.5 / vbv_maxrate=14000 / vbv_bufsize=14000 / nal_hrd=none / filler=0 / ip_ratio=1.40 / pb_ratio=1.30 / aq=3:0.80
Default : Yes
Forced : No
Color primaries : BT.709
Transfer characteristics : BT.709
Matrix coefficients : BT.709

Audio
ID : 2
Format : AC-3
Format/Info : Audio Coding 3
Mode extension : CM (complete main)
Format settings, Endianness : Big
Codec ID : A_AC3
Duration : 1h 30mn
Bit rate mode : Constant
Bit rate : 192 Kbps
Channel(s) : 2 channels
Channel positions : Front: L R
Sampling rate : 48.0 KHz
Bit depth : 16 bits
Compression mode : Lossy
Stream size : 124 MiB (5%)
Default : Yes
Forced : No

Свернуть

Скриншоты
Изображение
Изображение
Изображение
Свернуть
Изображение


Изображение Изображение
Не в сети
Профиль  
Начать новую темуОтветить на тему  [ 1 сообщение ] 
Вы не можете начинать темы
Вы не можете отвечать на сообщения
Вы не можете редактировать свои сообщения
Вы не можете удалять свои сообщения