Начать новую темуОтветить на тему  [ 1 сообщение ] 
Торрент файл
Размер: 3.28 GB • Зарегистрирован: 15 дней • Статус: T Временный релиз
Скачан: 14 раз • Желающих скачать: 0 • Поблагодарили: 6 раз
 Раздают: 2  |  5 KB/s  ]   Качают: 0  |  0 KB/s  ] 
Сообщения
 Добавлено: 2017-09-04 00:17
Top-releaser
Аватара пользователя
Стаж: 7 лет 10 месяцев
Сообщений: 3932
Спасибок: 269150
Лайков: 1134
Жених на двоих

Jour J


Изображение


Год выпуска: 2017
Страна: Франция
Жанр: Комедия
Продолжительность: 01:33:57
Перевод: Профессиональный (полное дублирование)
Режиссер: Рем Кериси
В ролях: Рем Кериси, Николя Дювошель, Джулия Пьятон, Сильви Тестю, Франсуа-Ксавье Демезон, Шанталь Лоби, Лионель Астье
Описание: Что делать, если любовница занимается организацией твоей свадьбы? Молиться, чтобы она не подружилась с невестой. У Матиаса осталось совсем мало времени, чтобы выбрать из двух девушек — одну.
Изображение
Качество: WEB-DL 1080p
Формат: MKV
Видео кодек: H.264
Аудио кодек: AC3
Видео: 1920x858 24fps 4521kbps
Аудио: 48kHz 6ch 384kbps
"MediaInfo"
Формат : Matroska
Версия формата : Version 4 / Version 2
Размер файла : 3,28 Гбайт
Продолжительность : 1 ч. 33 м.
Общий поток : 5004 Кбит/сек
Название фильма : JOUR_J_WEB_DL_1080p-BLUEBIRD
Дата кодирования : UTC 2017-09-03 18:19:41
Программа кодирования : mkvmerge v6.9.1 ('Blue Panther') 32bit built on Apr 18 2014 18:15:44
Библиотека кодирования : libebml v1.3.0 + libmatroska v1.4.1

Видео
Идентификатор : 1
Формат : AVC
Формат/Информация : Advanced Video Codec
Профиль формата : High@L4.0
Параметр CABAC формата : Да
Параметр ReFrames формата : 5 кадров
Идентификатор кодека : V_MPEG4/ISO/AVC
Продолжительность : 1 ч. 33 м.
Битрейт : 4521 Кбит/сек
Ширина : 1920 пикселей
Высота : 858 пикселей
Соотношение сторон : 2,25:1
Режим частоты кадров : Постоянный
Частота кадров : 24,000 кадра/сек
Цветовое пространство : YUV
Субдискретизация насыщенности : 4:2:0
Битовая глубина : 8 бит
Тип развёртки : Прогрессивная
Бит/(Пиксели*Кадры) : 0.114
Размер потока : 2,97 Гбайт (90%)
Заголовок : JOUR_J_WEB_DL_1080p-BLUEBIRD
Язык : English
Default : Да
Forced : Нет
Основные цвета : BT.709
Характеристики трансфера : BT.709
Коэффициенты матрицы : BT.709

Аудио
Идентификатор : 2
Формат : AC-3
Формат/Информация : Audio Coding 3
Расширение режима : CM (complete main)
Параметр Endianness формата : Big
Идентификатор кодека : A_AC3
Продолжительность : 1 ч. 33 м.
Вид битрейта : Постоянный
Битрейт : 384 Кбит/сек
Каналы : 6 каналов
Расположение каналов : Front: L C R, Side: L R, LFE
Частота : 48,0 КГц
Битовая глубина : 16 бит
Метод сжатия : С потерями
Размер потока : 258 Мбайт (8%)
Заголовок : [DUB] DD 5.1 @ 384 kbps (iTunes)
Язык : Russian
Default : Да
Forced : Нет

Меню
00:00:00.000 : en:Глава 1
00:06:53.250 : en:Глава 2
00:12:36.791 : en:Глава 3
00:16:55.666 : en:Глава 4
00:22:29.582 : en:Глава 5
00:28:32.998 : en:Глава 6
00:33:58.581 : en:Глава 7
00:40:40.372 : en:Глава 8
00:47:48.997 : en:Глава 9
00:53:00.038 : en:Глава 10
01:00:03.829 : en:Глава 11
01:06:02.745 : en:Глава 12
01:14:02.286 : en:Глава 13
01:19:08.036 : en:Глава 14
01:23:27.994 : en:Глава 15
Свернуть

"Скриншоты"
Изображение
Изображение
Изображение
Изображение
Изображение
Изображение
Свернуть
Не в сети
Профиль  
Начать новую темуОтветить на тему  [ 1 сообщение ] 
Вы не можете начинать темы
Вы не можете отвечать на сообщения
Вы не можете редактировать свои сообщения
Вы не можете удалять свои сообщения