Начать новую темуОтветить на тему  [ 1 сообщение ] 
Торрент файл
Размер: 8.4 GB • Зарегистрирован: 4 месяца 1 день • Статус: * Не проверено
Скачан: 300 раз • Желающих скачать: 0 • Поблагодарили: 45 раз
 Раздают: 7  |  0 KB/s  ]   Качают: 0  |  0 KB/s  ] 
Сообщения
 Добавлено: 2016-08-06 14:54
DVD Release Group
Аватара пользователя
Стаж: 7 лет 1 месяц
Сообщений: 3559
Спасибок: 247358
Лайков: 1018
Книга джунглей

The Jungle Book


Изображение


Год выпуска: 2016
Страна: США
Жанр: Драма, фэнтези, приключения
Продолжительность: 01:45:54
Перевод: Профессиональный (полное дублирование) чистый звук
Субтитры: Немецкие
Режиссер: Джон Фавро
В ролях: Скарлетт Йоханссон, Эмджей Энтони, Бен Кингсли, Идрис Эльба, Брэндон Хеншель, Билл Мюррей, Лупита Нионго, Джанкарло Эспозито, Кристофер Уокен, Нил Сетхи
Описание: Очередная экранизация произведения Редьярда Киплинга, история затерянного в джунглях ребенка. Оставшийся без родителей и вне человеческого общества мальчик был бы обречен на гибель, но в лесу он не остался в одиночестве — у него вскоре появилась новая семья — стая волков, медведь Балу и черная пантера Багира. Каждый из этих диких и мудрых зверей по-своему заботился о мальчике, обучая его выживанию. Он учился у них понимать язык зверей и птиц, перенимал их повадки и стал своим в сообществе животных, населяющих джунгли. Но при этом он не перестал быть человеком, и когда-нибудь ему предстоит познакомиться с себе подобными. Только вот какой будет эта встреча?
Изображение
Качество: BDRip 1080p
Формат: MKV
Видео кодек: H.264
Аудио кодек: AC3, DTS
Видео: 1920x1040 23.98fps 7473kbps
Аудио:
Аудио Rus: AC3 48kHz 2ch 640kbps
Аудио Eng: DTS 48kHz 6ch 1510kbps
Аудио Ger: DTS 48kHz 6ch 1510kbps
"MediaInfo"
Формат : Matroska
Версия формата : Version 2
Размер файла : 8,40 Гбайт
Продолжительность : 1 ч. 45 м.
Общий поток : 11,4 Мбит/сек
Дата кодирования : UTC 2016-08-06 09:11:07
Программа кодирования : mkvmerge v8.3.0 ('Over the Horizon') 64bit
Библиотека кодирования : libebml v1.3.1 + libmatroska v1.4.2
DURATION : 01:45:54.624000000
NUMBER_OF_FRAMES : 198582
NUMBER_OF_BYTES : 508369920
_STATISTICS_WRITING_APP : mkvmerge v8.3.0 ('Over the Horizon') 64bit
_STATISTICS_WRITING_DATE_UTC : 2016-08-06 09:11:07
_STATISTICS_TAGS : BPS DURATION NUMBER_OF_FRAMES NUMBER_OF_BYTES

Видео
Идентификатор : 1
Формат : AVC
Формат/Информация : Advanced Video Codec
Профиль формата : High@L4.1
Параметр CABAC формата : Да
Параметр ReFrames формата : 4 кадра
Идентификатор кодека : V_MPEG4/ISO/AVC
Продолжительность : 1 ч. 45 м.
Битрейт : 7473 Кбит/сек
Ширина : 1920 пикселей
Высота : 1040 пикселей
Соотношение сторон : 1,85:1
Режим частоты кадров : Постоянный
Частота кадров : 23,976 кадра/сек
Цветовое пространство : YUV
Субдискретизация насыщенности : 4:2:0
Битовая глубина : 8 бит
Тип развёртки : Прогрессивная
Бит/(Пиксели*Кадры) : 0.156
Размер потока : 5,53 Гбайт (66%)
Библиотека кодирования : x264 core 148 r2705 3f5ed56
Настройки программы : cabac=1 / ref=4 / deblock=1:-1:-1 / analyse=0x3:0x113 / me=umh / subme=7 / psy=1 / psy_rd=1.00:0.00 / mixed_ref=1 / me_range=16 / chroma_me=1 / trellis=1 / 8x8dct=1 / cqm=0 / deadzone=21,11 / fast_pskip=0 / chroma_qp_offset=-2 / threads=18 / lookahead_threads=3 / sliced_threads=0 / nr=0 / decimate=1 / interlaced=0 / bluray_compat=0 / constrained_intra=0 / bframes=3 / b_pyramid=2 / b_adapt=1 / b_bias=0 / direct=1 / weightb=1 / open_gop=0 / weightp=2 / keyint=250 / keyint_min=23 / scenecut=40 / intra_refresh=0 / rc_lookahead=40 / rc=crf / mbtree=1 / crf=20.0 / qcomp=0.60 / qpmin=0 / qpmax=69 / qpstep=4 / ip_ratio=1.40 / aq=1:1.00
Default : Да
Forced : Нет
DURATION : 01:45:54.640000000
NUMBER_OF_FRAMES : 152359
NUMBER_OF_BYTES : 6112819867
_STATISTICS_WRITING_APP : mkvmerge v8.3.0 ('Over the Horizon') 64bit
_STATISTICS_WRITING_DATE_UTC : 2016-08-06 09:11:07
_STATISTICS_TAGS : BPS DURATION NUMBER_OF_FRAMES NUMBER_OF_BYTES

Аудио #1
Идентификатор : 2
Формат : AC-3
Формат/Информация : Audio Coding 3
Расширение режима : CM (complete main)
Параметр Endianness формата : Big
Идентификатор кодека : A_AC3
Продолжительность : 1 ч. 45 м.
Вид битрейта : Постоянный
Битрейт : 640 Кбит/сек
Каналы : 2 канала
Расположение каналов : Front: L R
Частота : 48,0 КГц
Битовая глубина : 16 бит
Метод сжатия : С потерями
Размер потока : 485 Мбайт (6%)
Язык : Russian
Default : Да
Forced : Да

Аудио #2
Идентификатор : 3
Формат : DTS
Формат/Информация : Digital Theater Systems
Режим : 16
Параметр Endianness формата : Big
Идентификатор кодека : A_DTS
Продолжительность : 1 ч. 45 м.
Вид битрейта : Постоянный
Битрейт : 1509 Кбит/сек
Каналы : 6 каналов
Расположение каналов : Front: L C R, Side: L R, LFE
Частота : 48,0 КГц
Битовая глубина : 24 бит
Метод сжатия : С потерями
Размер потока : 1,12 Гбайт (13%)
Язык : English
Default : Нет
Forced : Нет

Аудио #3
Идентификатор : 4
Формат : DTS
Формат/Информация : Digital Theater Systems
Режим : 16
Параметр Endianness формата : Big
Идентификатор кодека : A_DTS
Продолжительность : 1 ч. 45 м.
Вид битрейта : Постоянный
Битрейт : 1509 Кбит/сек
Каналы : 6 каналов
Расположение каналов : Front: L C R, Side: L R, LFE
Частота : 48,0 КГц
Битовая глубина : 24 бит
Метод сжатия : С потерями
Размер потока : 1,12 Гбайт (13%)
Язык : German
Default : Нет
Forced : Нет

Текст
Идентификатор : 5
Формат : UTF-8
Идентификатор кодека : S_TEXT/UTF8
Идентификатор кодека/Информация : UTF-8 Plain Text
Язык : German
Default : Да
Forced : Да

Меню
00:00:00.000 : en:00:00:00.000
00:00:48.215 : en:00:00:48.215
00:05:15.315 : en:00:05:15.315
00:09:02.459 : en:00:09:02.459
00:12:42.178 : en:00:12:42.178
00:16:34.452 : en:00:16:34.452
00:21:20.029 : en:00:21:20.029
00:27:15.133 : en:00:27:15.133
00:35:04.144 : en:00:35:04.144
00:43:21.724 : en:00:43:21.724
00:48:05.132 : en:00:48:05.132
00:53:29.248 : en:00:53:29.248
00:58:03.271 : en:00:58:03.271
01:05:46.442 : en:01:05:46.442
01:10:35.523 : en:01:10:35.523
01:17:01.325 : en:01:17:01.325
01:20:48.927 : en:01:20:48.927
01:24:46.540 : en:01:24:46.540
01:30:32.969 : en:01:30:32.969
01:35:53.206 : en:01:35:53.206
Свернуть

"Скриншоты"
Изображение
Изображение
Изображение
Свернуть
Не в сети
Профиль  
Начать новую темуОтветить на тему  [ 1 сообщение ] 
Вы не можете начинать темы
Вы не можете отвечать на сообщения
Вы не можете редактировать свои сообщения
Вы не можете удалять свои сообщения