Начать новую темуОтветить на тему  [ 1 сообщение ] 
Торрент файл
Размер: 3.13 GB • Зарегистрирован: 10 месяцев • Статус: * Не проверено
Скачан: 4 раза • Желающих скачать: 0 • Поблагодарили: 1 раз
 Раздают: 0  |  0 KB/s  ]   Качают: 0  |  0 KB/s  ] 
 Полного источника не было 4 месяца 2 дня 
Сообщения
 Добавлено: 2016-01-19 16:19
RG-ELEKTRO
Аватара пользователя
Стаж: 2 года 3 месяца
Сообщений: 7928
Спасибок: 53776
Лайков: 3304
Контракт / The Contract


Изображение


Год выпуска: 2015
Страна: Великобритания
Жанр: боевик, триллер, криминал
Продолжительность: 01:39:20
Перевод: Любительский (одноголосый закадровый) [Хихидок] + Оригинальная звуковая дорожка

Режиссёр: Ник Ауэрбах
В ролях: Дэниэл Уэбб, Изабелль Аллен, Сара Армстронг, Патрик Райкарт, Никки Эванс, Пенни Джудд, Роберт Фусилла,
Антонио Кхеле, Джек Брэйди, Джонатан Родс
Описание: Два мира сталкиваются, когда финансист возвращается к себе домой и находит его заселенным чужими людьми.

Изображение Изображение
Качество: WEB-DL 720p
Формат: MKV
Видео кодек: MPEG-4 AVC
Аудио кодек: AC3
Видео: MPEG-4 AVC, 3845 kb/s, 1280x532
Аудио #1: AC3, 192 kb/s (2 ch) [Любительский (одноголосый закадровый)]
Аудио #2: English: AC3, 192 kb/s (2 ch) [Оригинальная звуковая дорожка]

"MI"
Format : Matroska
Format version : Version 2
File size : 3.13 GiB
Duration : 1h 39mn
Overall bit rate : 4 511 Kbps
Encoded date : UTC 2016-01-19 11:23:14
Writing application : mkvmerge v7.8.0 ('River Man') 32bit built on Apr 3 2015 12:11:22
Writing library : libebml v1.3.1 + libmatroska v1.4.2

Video
ID : 1
Format : AVC
Format/Info : Advanced Video Codec
Format profile : Main@L3.1
Format settings, CABAC : No
Format settings, ReFrames : 2 frames
Codec ID : V_MPEG4/ISO/AVC
Duration : 1h 39mn
Bit rate : 3 845 Kbps
Width : 1 280 pixels
Height : 532 pixels
Display aspect ratio : 2.40:1
Frame rate mode : Constant
Frame rate : 24.000 fps
Color space : YUV
Chroma subsampling : 4:2:0
Bit depth : 8 bits
Scan type : Progressive
Bits/(Pixel*Frame) : 0.235
Stream size : 2.67 GiB (85%)
Language : English
Default : Yes
Forced : No
Color range : Limited
Color primaries : BT.709
Transfer characteristics : BT.709
Matrix coefficients : BT.709

Audio #1
ID : 2
Format : AC-3
Format/Info : Audio Coding 3
Mode extension : CM (complete main)
Format settings, Endianness : Big
Codec ID : A_AC3
Duration : 1h 39mn
Bit rate mode : Constant
Bit rate : 192 Kbps
Channel(s) : 2 channels
Channel positions : Front: L R
Sampling rate : 48.0 KHz
Bit depth : 16 bits
Compression mode : Lossy
Stream size : 136 MiB (4%)
Language : Russian
Default : Yes
Forced : No

Audio #2
ID : 3
Format : AC-3
Format/Info : Audio Coding 3
Mode extension : CM (complete main)
Format settings, Endianness : Big
Codec ID : A_AC3
Duration : 1h 39mn
Bit rate mode : Constant
Bit rate : 384 Kbps
Channel(s) : 6 channels
Channel positions : Front: L C R, Side: L R, LFE
Sampling rate : 48.0 KHz
Bit depth : 16 bits
Compression mode : Lossy
Stream size : 273 MiB (9%)
Language : English
Default : No
Forced : No

Menu
00:00:00.000 : en:Chapter 1
00:30:36.000 : en:Chapter 2
00:59:42.000 : en:Chapter 3
01:35:20.000 : en:Chapter 4
Свернуть

Скриншоты
Изображение
Изображение
Изображение
Свернуть
Изображение


Изображение Изображение
_________________
Не ищите меня в "ВКонтакте", в "Одноклассниках" меня нет - я на трекерах сижу!
 vitso нравится это.
Не в сети
Профиль  
Начать новую темуОтветить на тему  [ 1 сообщение ] 
Вы не можете начинать темы
Вы не можете отвечать на сообщения
Вы не можете редактировать свои сообщения
Вы не можете удалять свои сообщения