Начать новую темуОтветить на тему  [ Сообщений: 4 ] 
Торрент файл
Размер: 2.99 GB • Зарегистрирован: 9 месяцев • Статус: * Не проверено
Скачан: 60 раз • Желающих скачать: 0 • Поблагодарили: 11 раз
 Раздают: 0  |  0 KB/s  ]   Качают: 0  |  0 KB/s  ] 
 Полного источника не было 4 часа 
Сообщения
 Добавлено: 2016-02-29 18:36
RG-ELEKTRO
Аватара пользователя
Стаж: 2 года 3 месяца
Сообщений: 7928
Спасибок: 53744
Лайков: 3304
Крадущийся тигр, затаившийся дракон: Меч судьбы / Crouching Tiger, Hidden Dragon: Sword of Destiny

Изображение

Изображение


Год выпуска: 2016
Страна: США (China Film Group Corporation, NetFlix, Pegasus Taihe Entertainment, The Weinstein Company LLC, Yucaipa Films)
Жанр: фэнтези, боевик, драма, приключения
Продолжительность: 01:40:29
Перевод: Любительский (многоголосый закадровый) [Parovoz Production] + Оригинальная звуковая дорожка
Субтитры: English, Dutch, French, German, Italian

Режиссёр: Юэнь Воо-пин
В ролях: Донни Ен, Мишель Йео, Гарри Шам мл., Джейсон Скотт Ли, Евгения Йуан, Жужу Чан, Крис Пэнг, Дэррил Квон, Роджер Йуан
Описание: История об утраченной любви, юной любви, легендарном мече и единственном шансе на спасение.

Изображение Изображение
Качество: WEBRip 720p
Формат: MKV
Видео кодек: MPEG-4 AVC
Аудио кодек: AC3
Видео: MPEG-4 AVC, 3338 kb/s, 1280x638
Аудио #1: AC3, 192 kb/s (2 ch) [Любительский (многоголосый закадровый)]
Аудио #2: English: AC3, 640 kb/s (6 ch) [Оригинальная звуковая дорожка]
Субтитры: English, Dutch, French, German, Italian

"MI"
Format : Matroska
Format version : Version 2
File size : 2.99 GiB
Duration : 1h 40mn
Overall bit rate : 4 255 Kbps
Encoded date : UTC 2016-02-29 14:46:02
Writing application : mkvmerge v7.8.0 ('River Man') 32bit built on Apr 3 2015 12:11:22
Writing library : libebml v1.3.1 + libmatroska v1.4.2

Video
ID : 1
Format : AVC
Format/Info : Advanced Video Codec
Format profile : High@L4.1
Format settings, CABAC : Yes
Format settings, ReFrames : 8 frames
Codec ID : V_MPEG4/ISO/AVC
Duration : 1h 40mn
Bit rate : 3 338 Kbps
Width : 1 280 pixels
Height : 638 pixels
Display aspect ratio : 2.006
Frame rate mode : Constant
Frame rate : 23.976 fps
Color space : YUV
Chroma subsampling : 4:2:0
Bit depth : 8 bits
Scan type : Progressive
Bits/(Pixel*Frame) : 0.170
Stream size : 2.34 GiB (78%)
Writing library : x264 core 148 r2665 a01e339
Encoding settings : cabac=1 / ref=8 / deblock=1:-3:-3 / analyse=0x3:0x133 / me=umh / subme=10 / psy=1 / psy_rd=1.05:0.00 / mixed_ref=1 / me_range=36 / chroma_me=1 / trellis=2 / 8x8dct=1 / cqm=0 / deadzone=6,6 / fast_pskip=0 / chroma_qp_offset=-2 / threads=12 / lookahead_threads=2 / sliced_threads=0 / nr=0 / decimate=0 / interlaced=0 / bluray_compat=0 / constrained_intra=0 / bframes=9 / b_pyramid=2 / b_adapt=2 / b_bias=0 / direct=3 / weightb=1 / open_gop=0 / weightp=2 / keyint=250 / keyint_min=23 / scenecut=40 / intra_refresh=0 / rc=crf / mbtree=0 / crf=18.0 / qcomp=0.80 / qpmin=0 / qpmax=69 / qpstep=4 / ip_ratio=1.10 / pb_ratio=1.10 / aq=3:0.70
Language : English
Default : Yes
Forced : No

Audio #1
ID : 2
Format : AC-3
Format/Info : Audio Coding 3
Mode extension : CM (complete main)
Format settings, Endianness : Big
Codec ID : A_AC3
Duration : 1h 40mn
Bit rate mode : Constant
Bit rate : 192 Kbps
Channel(s) : 2 channels
Channel positions : Front: L R
Sampling rate : 48.0 KHz
Bit depth : 16 bits
Compression mode : Lossy
Stream size : 138 MiB (5%)
Language : Russian
Default : Yes
Forced : No

Audio #2
ID : 3
Format : AC-3
Format/Info : Audio Coding 3
Mode extension : CM (complete main)
Format settings, Endianness : Big
Codec ID : A_AC3
Duration : 1h 40mn
Bit rate mode : Constant
Bit rate : 640 Kbps
Channel(s) : 6 channels
Channel positions : Front: L C R, Side: L R, LFE
Sampling rate : 48.0 KHz
Bit depth : 16 bits
Compression mode : Lossy
Stream size : 460 MiB (15%)
Language : English
Default : No
Forced : No

Text #1
ID : 4
Format : UTF-8
Codec ID : S_TEXT/UTF8
Codec ID/Info : UTF-8 Plain Text
Language : English
Default : No
Forced : No

Text #2
ID : 5
Format : UTF-8
Codec ID : S_TEXT/UTF8
Codec ID/Info : UTF-8 Plain Text
Title : English (SDH)
Language : English
Default : No
Forced : No

Text #3
ID : 6
Format : UTF-8
Codec ID : S_TEXT/UTF8
Codec ID/Info : UTF-8 Plain Text
Title : Dutch
Language : Dutch
Default : No
Forced : No

Text #4
ID : 7
Format : UTF-8
Codec ID : S_TEXT/UTF8
Codec ID/Info : UTF-8 Plain Text
Title : French
Language : French
Default : No
Forced : No

Text #5
ID : 8
Format : UTF-8
Codec ID : S_TEXT/UTF8
Codec ID/Info : UTF-8 Plain Text
Title : German
Language : German
Default : No
Forced : No

Text #6
ID : 9
Format : UTF-8
Codec ID : S_TEXT/UTF8
Codec ID/Info : UTF-8 Plain Text
Title : Italian
Language : Italian
Default : No
Forced : No
Свернуть

Скриншоты
Изображение
Изображение
Изображение
Свернуть
Изображение


Изображение Изображение
 romanlat нравится это.
Не в сети
Профиль  
 Добавлено: 2016-02-29 21:40 (спустя 3 часа)
Музыкоед
Аватара пользователя
Стаж: 7 лет 3 месяца
Сообщений: 2103
Лайков: 466
Эх, давно мы не летали между ёлками!
Не в сети
Профиль  
 Добавлено: 2016-02-29 22:44 (спустя 1 час 4 минуты)
Аватара пользователя
Стаж: 8 лет
Сообщений: 128
Спасибок: 409
Лайков: 25

Mr Know-All:

Эх, давно мы не летали между ёлками!

Парня со свирелью им не переплюнуть! :-D
Не в сети
Профиль  
 Добавлено: 2016-03-01 03:53 (спустя 5 часов)
Аватара пользователя
Стаж: 8 лет 7 месяцев
Сообщений: 1702
Спасибок: 104
Лайков: 152
нда... до хонгильдона им и подавно далеко... вот был чел, и правда летал между елками)))) всегда возникал вопрос - что ж они перцы такие крутые не выступают на олимпиадах?))) хотя понятно - последнем скрине только рожу страшную корчит, а в руках китайский пластмассовый ножик... в мире игрушек такие продают))) тв-3 походу, только в профиль...
Не в сети
Профиль  
Начать новую темуОтветить на тему  [ Сообщений: 4 ] 
Вы не можете начинать темы
Вы не можете отвечать на сообщения
Вы не можете редактировать свои сообщения
Вы не можете удалять свои сообщения