Начать новую темуОтветить на тему  [ Сообщений: 4 ] 
Торрент файл
Размер: 3.65 GB • Зарегистрирован: 11 месяцев • Статус: * Не проверено
Скачан: 79 раз • Желающих скачать: 0 • Поблагодарили: 14 раз
 Раздают: 1  |  0 KB/s  ]   Качают: 0  |  0 KB/s  ] 
Сообщения
 Добавлено: 2016-01-03 10:23
RG-ELEKTRO
Аватара пользователя
Стаж: 2 года 3 месяца
Сообщений: 7928
Спасибок: 53801
Лайков: 3304
Лобстер / The Lobster


Изображение


Выпущено: Ирландия, Великобритания, Греция, Франция, Нидерланды, США, Canal+ [fr], Centre National du Cinéma et de L'image Animée (CNC)
Год выпуска: 2015
Жанр: фантастика, триллер, мелодрама, комедия
Продолжительность: 01:56:14
Перевод: Любительский (многоголосый) [Parovoz Production]

Режиссер: Йоргос Лантимос

В ролях: Колин Фаррелл, Рэйчел Вайс, Джессика Барден, Оливия Колман, Эшли Дженсен, Ариана Лабед, Аггелики Папоулья, Джон Си Райли, Леа Сейду, Майкл Смайли, Бен Уишоу

О фильме: Действие происходит в недалеком будущем. Людей, не состоящих в браке, насильно отлавливают и переправляют в Отель, где им дается 45 дней, чтобы найти «свою половинку». Тех, кто не находит себе пару, превращают в выбранное ими животное и отпускают в лес...

Изображение Изображение

"Награды и номинации:"
Каннский кинофестиваль, 2015 год
Победитель (3):
Приз жюри
Квир-Пальмовая ветвь за освещение ЛГБТ-темы в кино - особое упоминание
Премия пальмовой собаки - приз жюри

Номинации (1):
Золотая пальмовая ветвь

Свернуть


Качество: WEB-DL 720p
Формат: MKV
Видео: MPEG-4 AVC, 3833 kb/s, 1280x718
Аудио: AC3, 192 kb/s (2 ch)
Аудио 2: English: AC3, 384 kb/s (6 ch)
Субтитры: Russian

"MI"
Format : Matroska
Format version : Version 2
File size : 3.65 GiB
Duration : 1h 56mn
Overall bit rate : 4 498 Kbps
Encoded date : UTC 2016-01-02 20:14:36
Writing application : mkvmerge v7.8.0 ('River Man') 32bit built on Apr 3 2015 12:11:22
Writing library : libebml v1.3.1 + libmatroska v1.4.2

Video
ID : 1
Format : AVC
Format/Info : Advanced Video Codec
Format profile : High@L3.1
Format settings, CABAC : No
Format settings, ReFrames : 2 frames
Codec ID : V_MPEG4/ISO/AVC
Duration : 1h 56mn
Bit rate : 3 833 Kbps
Width : 1 280 pixels
Height : 718 pixels
Display aspect ratio : 16:9
Frame rate mode : Constant
Frame rate : 24.000 fps
Color space : YUV
Chroma subsampling : 4:2:0
Bit depth : 8 bits
Scan type : Progressive
Bits/(Pixel*Frame) : 0.174
Stream size : 3.11 GiB (85%)
Language : English
Default : Yes
Forced : No
Color range : Limited
Color primaries : BT.709
Transfer characteristics : BT.709
Matrix coefficients : BT.709

Audio #1
ID : 2
Format : AC-3
Format/Info : Audio Coding 3
Mode extension : CM (complete main)
Format settings, Endianness : Big
Codec ID : A_AC3
Duration : 1h 56mn
Bit rate mode : Constant
Bit rate : 192 Kbps
Channel(s) : 2 channels
Channel positions : Front: L R
Sampling rate : 48.0 KHz
Bit depth : 16 bits
Compression mode : Lossy
Stream size : 160 MiB (4%)
Language : Russian
Default : Yes
Forced : No

Audio #2
ID : 3
Format : AC-3
Format/Info : Audio Coding 3
Mode extension : CM (complete main)
Format settings, Endianness : Big
Codec ID : A_AC3
Duration : 1h 56mn
Bit rate mode : Constant
Bit rate : 384 Kbps
Channel(s) : 6 channels
Channel positions : Front: L C R, Side: L R, LFE
Sampling rate : 48.0 KHz
Bit depth : 16 bits
Compression mode : Lossy
Stream size : 319 MiB (9%)
Language : English
Default : No
Forced : No

Text
ID : 4
Format : UTF-8
Codec ID : S_TEXT/UTF8
Codec ID/Info : UTF-8 Plain Text
Language : Russian
Default : No
Forced : No
Свернуть

"Скриншоты"
Изображение
Изображение
Изображение
Свернуть
Изображение


Изображение Изображение
_________________
Не ищите меня в "ВКонтакте", в "Одноклассниках" меня нет - я на трекерах сижу!
Не в сети
Профиль  
 Добавлено: 2016-01-03 14:26 (спустя 4 часа)
Аватара пользователя
Стаж: 7 лет 6 месяцев
Возраст: 26
Сообщений: 41
Лайков: 1
бред......
Не в сети
Профиль  
 Добавлено: 2016-01-03 21:04 (спустя 6 часов)
Кинокомментатор
Аватара пользователя
Стаж: 9 лет 1 месяц
Сообщений: 1332
Лайков: 54
Ну это же просто модель, утрированная модель нас... Надо пересмотреть) потом...
8/10
Не в сети
Профиль  
 Добавлено: 2016-01-16 18:21 (спустя 12 дней)
Стаж: 8 лет 5 месяцев
Сообщений: 12
Подскажите пожалуйста перевод как?Неплохой?
Не в сети
Профиль  
Начать новую темуОтветить на тему  [ Сообщений: 4 ] 
Вы не можете начинать темы
Вы не можете отвечать на сообщения
Вы не можете редактировать свои сообщения
Вы не можете удалять свои сообщения