Начать новую темуОтветить на тему  [ Сообщений: 3 ] 
Торрент файл
Размер: 10.24 GB • Зарегистрирован: 6 месяцев • Статус: * Не проверено
Скачан: 122 раза • Желающих скачать: 0 • Поблагодарили: 15 раз
 Раздают: 1  |  0 KB/s  ]   Качают: 0  |  0 KB/s  ] 
Сообщения
 Добавлено: 2016-05-26 09:27
RG-ELEKTRO
Аватара пользователя
Стаж: 2 года 3 месяца
Сообщений: 7928
Спасибок: 53739
Лайков: 3304
Миссия в Майами / Ride Along 2

Изображение

Изображение


Год выпуска: 2016
Страна: США
Жанр: боевик, комедия
Продолжительность: 01:41:27
Перевод: Профессиональный (дублированный) [Tunes]

Режиссёр: Тим Стори
В ролях: Айс Кьюб, Кевин Харт, Тика Самптер, Бенджамин Брэтт, Оливия Манн, Кен Жонг, Брюс МакГилл, Майкл Эдвард Роуз, Шерри Шеперд, Артуро дель Пуэрто
Описание: Накануне собственной свадьбы Бен отправляется с братом своей будущей жены, крутым полицейским Джеймсом, в Майами, чтобы схватить наркодельца.

Изображение Изображение

Качество: BDRip 1080p
Формат: MKV
Видео кодек: MPEG-4 AVC
Аудио кодек: AC3 / DTS
Видео: MPEG-4 AVC, 1920x800, 12.5 Mbit/s, 23.976 fps
Аудио #1: 48 kHz, AC3, 5.1, 384 Kbps [Профессиональный (дублированный) [iTunes]
Аудио #2: 48 kHz, DTS, 5.1, 1510 kbps | Оригинал
Субтитры: Английские

"MI"
General
Unique ID : 177660262422470980474092027614475356011 (0x85A81F36FB7730A5803942FE67FC876B)
Complete name : F:VideoRide.Along.2.2016.BDRip.1080p.ExKinoRay.mkv
Format : Matroska
Format version : Version 4 / Version 2
File size : 10.2 GiB
Duration : 1h 41mn
Overall bit rate : 14.4 Mbps
Movie name : Ride.Along.2.2016.BDRip.1080p.ExKinoRay
Encoded date : UTC 2016-05-26 02:18:45
Writing application : mkvmerge v8.3.0 ('Over the Horizon') 64bit
Writing library : libebml v1.3.1 + libmatroska v1.4.2

Video
ID : 1
Format : AVC
Format/Info : Advanced Video Codec
Format profile : High@L4.1
Format settings, CABAC : Yes
Format settings, ReFrames : 5 frames
Codec ID : V_MPEG4/ISO/AVC
Duration : 1h 41mn
Bit rate : 12.5 Mbps
Width : 1 920 pixels
Height : 800 pixels
Display aspect ratio : 2.40:1
Frame rate mode : Constant
Frame rate : 23.976 (24000/1001) fps
Color space : YUV
Chroma subsampling : 4:2:0
Bit depth : 8 bits
Scan type : Progressive
Bits/(Pixel*Frame) : 0.341
Stream size : 8.90 GiB (87%)
Title : Ride.Along.2.2016.BDRip.1080p.ExKinoRay.***селезень***
Writing library : x264 core 148 r2665+53 6629127 t_mod_Custom [8-bit@all X86_64]
Encoding settings : cabac=1 / ref=5 / deblock=1:-3:-3 / analyse=0x3:0x133 / me=umh / subme=11 / psy=1 / fade_compensate=0.00 / psy_rd=1.00:0.00 / mixed_ref=1 / me_range=32 / chroma_me=1 / trellis=2 / 8x8dct=1 / cqm=0 / deadzone=21,11 / fast_pskip=0 / chroma_qp_offset=-2 / threads=16 / lookahead_threads=2 / sliced_threads=0 / nr=0 / decimate=0 / interlaced=0 / bluray_compat=0 / constrained_intra=0 / fgo=0 / bframes=8 / b_pyramid=2 / b_adapt=2 / b_bias=0 / direct=3 / weightb=1 / open_gop=0 / weightp=2 / keyint=250 / keyint_min=23 / scenecut=40 / intra_refresh=0 / rc_lookahead=150 / rc=crf / mbtree=0 / crf=16.2000 / qcomp=0.65 / qpmin=0:0:0 / qpmax=69:69:69 / qpstep=4 / vbv_maxrate=50000 / vbv_bufsize=62500 / crf_max=0.0 / nal_hrd=none / filler=0 / ip_ratio=1.30 / pb_ratio=1.20 / aq=3:0.65 / aq-sensitivity=10.00 / aq-factor=1.00:1.00:1.00 / aq2=0 / aq3=0
Language : English
Default : Yes
Forced : No
Color range : Limited
Matrix coefficients : BT.709

Audio #1
ID : 2
Format : AC-3
Format/Info : Audio Coding 3
Mode extension : CM (complete main)
Format settings, Endianness : Big
Codec ID : A_AC3
Duration : 1h 41mn
Bit rate mode : Constant
Bit rate : 384 Kbps
Channel(s) : 6 channels
Channel positions : Front: L C R, Side: L R, LFE
Sampling rate : 48.0 KHz
Frame rate : 31.250 fps (1536 spf)
Compression mode : Lossy
Delay relative to video : 32ms
Stream size : 279 MiB (3%)
Title : DUB [iTunes]
Language : Russian
Default : Yes
Forced : No

Audio #2
ID : 3
Format : DTS
Format/Info : Digital Theater Systems
Mode : 16
Format settings, Endianness : Big
Codec ID : A_DTS
Duration : 1h 41mn
Bit rate mode : Constant
Bit rate : 1 509 Kbps
Channel(s) : 6 channels
Channel positions : Front: L C R, Side: L R, LFE
Sampling rate : 48.0 KHz
Frame rate : 93.750 fps (512 spf)
Bit depth : 24 bits
Compression mode : Lossy
Stream size : 1.07 GiB (10%)
Title : Original
Language : English
Default : No
Forced : No

Text #1
ID : 4
Format : UTF-8
Codec ID : S_TEXT/UTF8
Codec ID/Info : UTF-8 Plain Text
Duration : 1h 36mn
Bit rate : 97 bps
Count of elements : 2204
Stream size : 68.9 KiB (0%)
Language : English
Default : No
Forced : No

Text #2
ID : 5
Format : UTF-8
Codec ID : S_TEXT/UTF8
Codec ID/Info : UTF-8 Plain Text
Duration : 1h 36mn
Bit rate : 103 bps
Count of elements : 2312
Stream size : 72.9 KiB (0%)
Title : SDH
Language : English
Default : No
Forced : No

Menu
00:00:00.000 : en:Chapter 01
00:03:29.584 : en:Chapter 02
00:10:26.751 : en:Chapter 03
00:14:00.089 : en:Chapter 04
00:17:21.040 : en:Chapter 05
00:22:33.269 : en:Chapter 06
00:27:48.876 : en:Chapter 07
00:34:33.530 : en:Chapter 08
00:39:25.905 : en:Chapter 09
00:42:26.002 : en:Chapter 10
00:46:06.013 : en:Chapter 11
00:50:51.173 : en:Chapter 12
00:56:40.689 : en:Chapter 13
01:00:04.726 : en:Chapter 14
01:06:57.680 : en:Chapter 15
01:13:09.051 : en:Chapter 16
01:19:35.396 : en:Chapter 17
01:23:06.732 : en:Chapter 18
01:31:19.766 : en:Chapter 19
01:36:58.938 : en:Chapter 20
Свернуть

Скриншоты
Изображение
Изображение
Изображение
Свернуть
Изображение


Изображение Изображение
_________________
Не ищите меня в "ВКонтакте", в "Одноклассниках" меня нет - я на трекерах сижу!
Не в сети
Профиль  
 Добавлено: 2016-06-18 14:18 (спустя 23 дня)
Top-seeder
Аватара пользователя
Стаж: 9 лет
Сообщений: 206
Спасибок: 739
Лайков: 11
А где первая часть? :ne_znayu:
Не в сети
Профиль  
 Добавлено: 2016-07-09 08:22 (спустя 20 дней)
Стаж: 9 лет
Сообщений: 5
Первая часть называется "Совместная поездка".
Не в сети
Профиль  
Начать новую темуОтветить на тему  [ Сообщений: 3 ] 
Вы не можете начинать темы
Вы не можете отвечать на сообщения
Вы не можете редактировать свои сообщения
Вы не можете удалять свои сообщения