Начать новую темуОтветить на тему  [ 1 сообщение ] 
Торрент файл
Размер: 25.91 GB • Зарегистрирован: 6 месяцев • Статус: * Не проверено
Скачан: 13 раз • Желающих скачать: 0 • Поблагодарили: 2 раза
 Раздают: 0  |  0 KB/s  ]   Качают: 0  |  0 KB/s  ] 
 Полного источника не было 10 часов 
Сообщения
 Добавлено: 2016-05-26 09:33
RG-ELEKTRO
Аватара пользователя
Стаж: 2 года 3 месяца
Сообщений: 7928
Спасибок: 53761
Лайков: 3304
Миссия в Майами / Ride Along 2

Изображение

Изображение


Год выпуска: 2016
Страна: США
Жанр: боевик, комедия
Продолжительность: 01:41:27
Перевод: Профессиональный (дублированный) [Tunes]

Режиссёр: Тим Стори
В ролях: Айс Кьюб, Кевин Харт, Тика Самптер, Бенджамин Брэтт, Оливия Манн, Кен Жонг, Брюс МакГилл, Майкл Эдвард Роуз, Шерри Шеперд, Артуро дель Пуэрто
Описание: Накануне собственной свадьбы Бен отправляется с братом своей будущей жены, крутым полицейским Джеймсом, в Майами, чтобы схватить наркодельца.

Изображение Изображение

Качество: BDRemux 1080p
Формат: MKV
Видео кодек: MPEG-4 AVC
Аудио кодек: AC3 / DTS-HD MA
Видео: MPEG-4 AVC, 1920x1080, 32.3 Mbit/s, 23.976 fps
Аудио #1: 48 kHz, AC3, 5.1, 384 Kbps [Профессиональный (дублированный) [iTunes]
Аудио #2: 48 kHz, DTS-HD MA, 5.1, 3840 kbps | Оригинал
Субтитры: Английские

"MI"
General
Unique ID : 183788607796094710171056651972819229777 (0x8A4465F83ED1C7AE82F44BBBC9431C51)
Complete name : F:VideoRide.Along.2..2016.BDREMUX.1080p.ExKinoRay.mkv
Format : Matroska
Format version : Version 4 / Version 2
File size : 25.9 GiB
Duration : 1h 41mn
Overall bit rate mode : Variable
Overall bit rate : 36.6 Mbps
Movie name : Ride.Along.2.2016.BDREMUX.1080p.ExKinoRay
Encoded date : UTC 2016-05-26 03:14:25
Writing application : mkvmerge v8.3.0 ('Over the Horizon') 64bit
Writing library : libebml v1.3.1 + libmatroska v1.4.2

Video
ID : 1
Format : AVC
Format/Info : Advanced Video Codec
Format profile : High@L4.1
Format settings, CABAC : Yes
Format settings, ReFrames : 4 frames
Codec ID : V_MPEG4/ISO/AVC
Duration : 1h 41mn
Bit rate mode : Variable
Bit rate : 32.3 Mbps
Maximum bit rate : 35.0 Mbps
Width : 1 920 pixels
Height : 1 080 pixels
Display aspect ratio : 16:9
Frame rate mode : Constant
Frame rate : 23.976 (24000/1001) fps
Color space : YUV
Chroma subsampling : 4:2:0
Bit depth : 8 bits
Scan type : Progressive
Bits/(Pixel*Frame) : 0.650
Stream size : 22.9 GiB (88%)
Title : Ride.Along.2.2016.BDREMUX.1080p.ExKinoRay.***селезень***
Language : English
Default : Yes
Forced : No

Audio #1
ID : 2
Format : AC-3
Format/Info : Audio Coding 3
Mode extension : CM (complete main)
Format settings, Endianness : Big
Codec ID : A_AC3
Duration : 1h 41mn
Bit rate mode : Constant
Bit rate : 384 Kbps
Channel(s) : 6 channels
Channel positions : Front: L C R, Side: L R, LFE
Sampling rate : 48.0 KHz
Frame rate : 31.250 fps (1536 spf)
Compression mode : Lossy
Delay relative to video : 32ms
Stream size : 279 MiB (1%)
Title : DUB [iTunes]
Language : Russian
Default : Yes
Forced : No

Audio #2
ID : 3
Format : DTS
Format/Info : Digital Theater Systems
Format profile : MA / Core
Mode : 16
Format settings, Endianness : Big
Codec ID : A_DTS
Duration : 1h 41mn
Bit rate mode : Variable / Constant
Bit rate : 3 840 Kbps / 1 509 Kbps
Channel(s) : 6 channels
Channel positions : Front: L C R, Side: L R, LFE
Sampling rate : 48.0 KHz
Frame rate : 93.750 fps (512 spf)
Bit depth : 24 bits
Compression mode : Lossless / Lossy
Stream size : 2.71 GiB (10%)
Title : Original
Language : English
Default : No
Forced : No

Text #1
ID : 4
Format : UTF-8
Codec ID : S_TEXT/UTF8
Codec ID/Info : UTF-8 Plain Text
Duration : 1h 36mn
Bit rate : 97 bps
Count of elements : 2204
Stream size : 68.9 KiB (0%)
Language : English
Default : No
Forced : No

Text #2
ID : 5
Format : UTF-8
Codec ID : S_TEXT/UTF8
Codec ID/Info : UTF-8 Plain Text
Duration : 1h 36mn
Bit rate : 103 bps
Count of elements : 2312
Stream size : 72.9 KiB (0%)
Title : SDH
Language : English
Default : No
Forced : No

Menu
00:00:00.000 : en:Chapter 01
00:03:29.584 : en:Chapter 02
00:10:26.751 : en:Chapter 03
00:14:00.089 : en:Chapter 04
00:17:21.040 : en:Chapter 05
00:22:33.269 : en:Chapter 06
00:27:48.876 : en:Chapter 07
00:34:33.530 : en:Chapter 08
00:39:25.905 : en:Chapter 09
00:42:26.002 : en:Chapter 10
00:46:06.013 : en:Chapter 11
00:50:51.173 : en:Chapter 12
00:56:40.689 : en:Chapter 13
01:00:04.726 : en:Chapter 14
01:06:57.680 : en:Chapter 15
01:13:09.051 : en:Chapter 16
01:19:35.396 : en:Chapter 17
01:23:06.732 : en:Chapter 18
01:31:19.766 : en:Chapter 19
01:36:58.938 : en:Chapter 20
Свернуть

Скриншоты
Изображение
Изображение
Изображение
Свернуть
Изображение


Изображение Изображение
_________________
Не ищите меня в "ВКонтакте", в "Одноклассниках" меня нет - я на трекерах сижу!
Не в сети
Профиль  
Начать новую темуОтветить на тему  [ 1 сообщение ] 
Вы не можете начинать темы
Вы не можете отвечать на сообщения
Вы не можете редактировать свои сообщения
Вы не можете удалять свои сообщения