Начать новую темуОтветить на тему  [ 1 сообщение ] 
Торрент файл
Размер: 5.86 GB • Зарегистрирован: 7 месяцев • Статус: * Не проверено
Скачан: 28 раз • Желающих скачать: 0 • Поблагодарили: 6 раз
 Раздают: 0  |  0 KB/s  ]   Качают: 0  |  0 KB/s  ] 
 Полного источника не было 1 день 14 часов 
Сообщения
 Добавлено: 2016-04-12 16:02
RG-ELEKTRO
Аватара пользователя
Стаж: 2 года 3 месяца
Сообщений: 7928
Спасибок: 53739
Лайков: 3304
Моджин: Забытая легенда / Mojin: The Lost Legend

Изображение

Изображение

Год выпуска: 2015
Страна: Китай
Жанр: приключения, ужасы, экшн
Продолжительность: 02:04:45
Перевод: Любительский (двухголосый закадровый) (Ворон и Sandairina) + Оригинальная звуковая дорожка
Субтитры: Русские, Английские

Режиссёр: Вуершан
В ролях: Шу Ци, Чэнь Кунь, Хуан Бо, Анжела Бейби, Ся Юй, Лю Сяоцин, Черри Нган и др.
Описание: Бывший солдат Ху вместе с напарником промышляет расхищением гробниц. Он навлекает на себя ужасное проклятие и, чтобы освободиться, пускается в путешествие по мистическим местам Китая и Тибета в поисках разгадок древних тайн.

Изображение
Качество: BDRip 720p
Формат: MKV
Видео кодек: MPEG-4 AVC
Аудио кодек: AC3 / DTS
Видео: MPEG-4 AVC, 1280x696 (1.85:1), 24.000 fps, 4 761 Kbps (0.223 bit/pixel)
Аудио #1: AC3, 48.0 KHz, 6 ch, 448 Kbps, CBR [Любительский (двухголосый закадровый) (Ворон и Sandairina)]
Аудио #2: DTS, 48.0 KHz, 6 ch, 1 509 Kbps, CBR (Chinese) [Оригинальная звуковая дорожка]
Субтитры: Русские, Английские

"MI"
Общее
Уникальный идентификатор : 223667360314860191718191160233512945522 (0xA844C44538D4CE69A3EC421E35904772)
Полное имя : Mojin.The.Lost.Legend.2015.720p.Ru.Ch.mkv
Формат : Matroska
Версия формата : Version 4 / Version 2
Размер файла : 5,86 Гбайт
Продолжительность : 2 ч. 4 м.
Общий поток : 6719 Кбит/сек
Дата кодирования : UTC 2016-04-12 11:51:09
Программа кодирования : mkvmerge v7.8.0 ('River Man') 64bit built on Mar 27 2015 16:31:37
Библиотека кодирования : libebml v1.3.1 + libmatroska v1.4.2

Видео
Идентификатор : 1
Формат : AVC
Формат/Информация : Advanced Video Codec
Профиль формата : High@L4.1
Параметр CABAC формата : Да
Параметр ReFrames формата : 5 кадров
Идентификатор кодека : V_MPEG4/ISO/AVC
Продолжительность : 2 ч. 4 м.
Битрейт : 4761 Кбит/сек
Ширина : 1280 пикселей
Высота : 696 пикселей
Соотношение сторон : 1,85:1
Режим частоты кадров : Переменный
Частота кадров : 24,000 кадра/сек
Цветовое пространство : YUV
Субдискретизация насыщенности : 4:2:0
Битовая глубина : 8 бит
Тип развёртки : Прогрессивная
Бит/(Пиксели*Кадры) : 0.223
Размер потока : 4,15 Гбайт (71%)
Библиотека кодирования : x264 core 148 r2665 a01e339
Настройки программы : cabac=1 / ref=5 / deblock=1:0:0 / analyse=0x3:0x133 / me=umh / subme=7 / psy=1 / psy_rd=1.00:0.00 / mixed_ref=1 / me_range=16 / chroma_me=1 / trellis=1 / 8x8dct=1 / cqm=0 / deadzone=21,11 / fast_pskip=0 / chroma_qp_offset=-2 / threads=18 / lookahead_threads=3 / sliced_threads=0 / nr=0 / decimate=1 / interlaced=0 / bluray_compat=0 / constrained_intra=0 / bframes=3 / b_pyramid=2 / b_adapt=1 / b_bias=0 / direct=1 / weightb=1 / open_gop=0 / weightp=2 / keyint=250 / keyint_min=23 / scenecut=40 / intra_refresh=0 / rc_lookahead=40 / rc=2pass / mbtree=1 / bitrate=4761 / ratetol=1.0 / qcomp=0.60 / qpmin=0 / qpmax=69 / qpstep=4 / cplxblur=20.0 / qblur=0.5 / ip_ratio=1.40 / aq=1:1.00
Язык : Chinese
Default : Да
Forced : Нет

Аудио #1
Идентификатор : 2
Формат : AC-3
Формат/Информация : Audio Coding 3
Расширение режима : CM (complete main)
Параметр Endianness формата : Big
Идентификатор кодека : A_AC3
Продолжительность : 2 ч. 4 м.
Вид битрейта : Постоянный
Битрейт : 448 Кбит/сек
Каналы : 6 каналов
Расположение каналов : Front: L C R, Side: L R, LFE
Частота : 48,0 КГц
Частота кадров : 31,250 кадров/сек (1536 spf)
Метод сжатия : С потерями
Размер потока : 400 Мбайт (7%)
Заголовок : Ворон и Sandairina
Язык : Russian
Default : Нет
Forced : Нет

Аудио #2
Идентификатор : 3
Формат : DTS
Формат/Информация : Digital Theater Systems
Режим : 16
Параметр Endianness формата : Big
Идентификатор кодека : A_DTS
Продолжительность : 2 ч. 4 м.
Вид битрейта : Постоянный
Битрейт : 1509 Кбит/сек
Каналы : 6 каналов
Расположение каналов : Front: L C R, Side: L R, LFE
Частота : 48,0 КГц
Частота кадров : 93,750 кадра/сек (512 spf)
Битовая глубина : 24 бит
Метод сжатия : С потерями
Размер потока : 1,31 Гбайт (22%)
Заголовок : Original
Язык : Chinese
Default : Нет
Forced : Нет

Текст #1
Идентификатор : 4
Формат : ASS
Идентификатор кодека : S_TEXT/ASS
Идентификатор кодека/Информация : Advanced Sub Station Alpha
Продолжительность : 1 ч. 48 м.
Битрейт : 2 бит/сек
Count of elements : 18
Метод сжатия : Без потерь
Размер потока : 1,68 Кбайт (0%)
Заголовок : форсированные
Язык : Russian
Default : Нет
Forced : Нет

Текст #2
Идентификатор : 5
Формат : ASS
Идентификатор кодека : S_TEXT/ASS
Идентификатор кодека/Информация : Advanced Sub Station Alpha
Продолжительность : 1 ч. 51 м.
Битрейт : 158 бит/сек
Count of elements : 1662
Метод сжатия : Без потерь
Размер потока : 129 Кбайт (0%)
Заголовок : Full
Язык : Russian
Default : Нет
Forced : Нет

Текст #3
Идентификатор : 6
Формат : UTF-8
Идентификатор кодека : S_TEXT/UTF8
Идентификатор кодека/Информация : UTF-8 Plain Text
Продолжительность : 1 ч. 51 м.
Битрейт : 46 бит/сек
Count of elements : 1671
Размер потока : 38,3 Кбайт (0%)
Заголовок : Forced
Язык : English
Default : Да
Forced : Да

Меню
00:00:00.000 : en:00:00:00.000
00:18:23.875 : en:00:18:23.875
00:40:09.833 : en:00:40:09.833
00:59:50.417 : en:00:59:50.417
01:17:23.625 : en:01:17:23.625
01:40:42.958 : en:01:40:42.958
Свернуть

Скриншоты
Изображение
Изображение
Изображение
Свернуть
Не в сети
Профиль  
Начать новую темуОтветить на тему  [ 1 сообщение ] 
Вы не можете начинать темы
Вы не можете отвечать на сообщения
Вы не можете редактировать свои сообщения
Вы не можете удалять свои сообщения