Начать новую темуОтветить на тему  [ Сообщений: 2 ] 
Торрент файл
Размер: 7.08 GB • Зарегистрирован: 1 месяц 24 дня • Статус: T Временный релиз
Скачан: 7 раз • Желающих скачать: 0 • Поблагодарили: 1 раз
 Раздают: 3  |  216 KB/s  ]   Качают: 0  |  0 KB/s  ] 
Сообщения
 Добавлено: 2017-07-25 18:19
Top-releaser
Аватара пользователя
Стаж: 9 лет 6 месяцев
Сообщений: 547
Спасибок: 21736
Лайков: 23
Изображение

Неоспоримый 4

Boyka: Undisputed IV




Год выпуска: 2016
Страна: Таиланд / Nu Boyana Viburno
Жанр: Боевик
Продолжительность: 01:30:11
Перевод: Профессиональный многоголосый - (Студия "Paradox" & Omskbird records) , Оригинал

Режиссёр: Тодор Чапканов / Todor Chapkanov

В ролях: Скотт Эдкинс, Теодора Духовникова, Алон Абутбул, Юлиан Вергов, Брахим Ачаббаке, Пол Чахиди, Валентин Ганев, Владо Мажанаов, Мартин Форд

Описание: Бойка пробует свои силы в высшей лиге, но случайная смерть на ринге заставляет его подвергнуть сомнению всё, во что он верит.


Качество: BDRip 1080p
Формат: MKV

Видео: MPEG-4 AVC, 8890 Кбит/с, 1920x1040

Аудио 1: AC3, 2 ch, 192 Кбит/с - Профессиональный многоголосый
Аудио 2: AC3, 6 ch, 640 Кбит/с - Оригинал
Аудио 2: DTS, 6 ch, 1510 Кбит/с - Оригинал

Изображение
Присутствует ненормативная лексика.

MediaInfo

General
Unique ID : 176636672221269163278305427677341921796 (0x84E2FC524C95CB45BC453DF5B001B204)
Complete name : C:\Users\User\Desktop\Boyka.Undisputed.2016.BDRip.1080p.mkv
Format : Matroska
Format version : Version 4 / Version 2
File size : 7.08 GiB
Duration : 1 h 30 min
Overall bit rate : 11.2 Mb/s
Encoded date : UTC 2017-07-25 13:03:57
Writing application : mkvmerge v14.0.0 ('Flow') 64bit
Writing library : libebml v1.3.4 + libmatroska v1.4.5

Video
ID : 1
Format : AVC
Format/Info : Advanced Video Codec
Format profile : High@L4.1
Format settings, CABAC : Yes
Format settings, ReFrames : 4 frames
Codec ID : V_MPEG4/ISO/AVC
Duration : 1 h 30 min
Bit rate : 8 889 kb/s
Width : 1 920 pixels
Height : 1 040 pixels
Display aspect ratio : 1.85:1
Frame rate mode : Constant
Frame rate : 23.976 (24000/1001) FPS
Color space : YUV
Chroma subsampling : 4:2:0
Bit depth : 8 bits
Scan type : Progressive
Bits/(Pixel*Frame) : 0.186
Stream size : 5.60 GiB (79%)
Writing library : x264 core 152 r2851 ba24899
Encoding settings : cabac=1 / ref=4 / deblock=1:-3:-3 / analyse=0x3:0x113 / me=umh / subme=8 / psy=1 / psy_rd=1.00:0.25 / mixed_ref=1 / me_range=24 / chroma_me=1 / trellis=1 / 8x8dct=1 / cqm=0 / deadzone=21,11 / fast_pskip=1 / chroma_qp_offset=-4 / threads=30 / lookahead_threads=5 / sliced_threads=0 / nr=0 / decimate=1 / interlaced=0 / bluray_compat=0 / constrained_intra=0 / bframes=3 / b_pyramid=2 / b_adapt=1 / b_bias=0 / direct=3 / weightb=1 / open_gop=0 / weightp=2 / keyint=240 / keyint_min=24 / scenecut=40 / intra_refresh=0 / rc_lookahead=50 / rc=2pass / mbtree=1 / bitrate=8889 / ratetol=1.0 / qcomp=0.60 / qpmin=0 / qpmax=69 / qpstep=4 / cplxblur=20.0 / qblur=0.5 / ip_ratio=1.40 / aq=1:0.75
Language : English
Default : Yes
Forced : No

Audio #1
ID : 2
Format : AC-3
Format/Info : Audio Coding 3
Mode extension : CM (complete main)
Format settings, Endianness : Big
Codec ID : A_AC3
Duration : 1 h 30 min
Bit rate mode : Constant
Bit rate : 192 kb/s
Channel(s) : 2 channels
Channel positions : Front: L R
Sampling rate : 48.0 kHz
Frame rate : 31.250 FPS (1536 spf)
Bit depth : 16 bits
Compression mode : Lossy
Stream size : 124 MiB (2%)
Language : Russian
Default : Yes
Forced : No

Audio #2
ID : 3
Format : AC-3
Format/Info : Audio Coding 3
Mode extension : CM (complete main)
Format settings, Endianness : Big
Codec ID : A_AC3
Duration : 1 h 30 min
Bit rate mode : Constant
Bit rate : 640 kb/s
Channel(s) : 6 channels
Channel positions : Front: L C R, Side: L R, LFE
Sampling rate : 48.0 kHz
Frame rate : 31.250 FPS (1536 spf)
Bit depth : 16 bits
Compression mode : Lossy
Stream size : 413 MiB (6%)
Language : English
Default : No
Forced : No

Audio #3
ID : 4
Format : DTS
Format/Info : Digital Theater Systems
Mode : 16
Format settings, Endianness : Big
Codec ID : A_DTS
Duration : 1 h 30 min
Bit rate mode : Constant
Bit rate : 1 509 kb/s
Channel(s) : 6 channels
Channel positions : Front: L C R, Side: L R, LFE
Sampling rate : 48.0 kHz
Frame rate : 93.750 FPS (512 spf)
Bit depth : 24 bits
Compression mode : Lossy
Stream size : 973 MiB (13%)
Language : English
Default : No
Forced : No

Menu
00:00:00.000 : en:00:00:00.000
00:05:35.961 : en:00:05:35.961
00:09:25.565 : en:00:09:25.565
00:15:05.279 : en:00:15:05.279
00:20:40.739 : en:00:20:40.739
00:24:04.693 : en:00:24:04.693
00:28:33.587 : en:00:28:33.587
00:33:22.042 : en:00:33:22.042
00:36:50.125 : en:00:36:50.125
00:40:19.626 : en:00:40:19.626
00:43:33.110 : en:00:43:33.110
00:49:52.281 : en:00:49:52.281
00:55:00.214 : en:00:55:00.214
01:00:25.455 : en:01:00:25.455
01:03:51.578 : en:01:03:51.578
01:09:06.059 : en:01:09:06.059
01:11:39.795 : en:01:11:39.795
01:16:58.656 : en:01:16:58.656
01:22:25.399 : en:01:22:25.399
01:26:35.148 : en:01:26:35.148


Свернуть
Скриншоты

Изображение
Изображение
Изображение
Изображение
Изображение
Свернуть
_________________
Изображение
Изображение
Не в сети
Профиль  
 Добавлено: 2017-07-26 03:06 (спустя 8 часов)
Аватара пользователя
Стаж: 8 лет 5 месяцев
Сообщений: 992
Лайков: 72
Стоит смотреть, не?
А то, как я погляжу, светофильтр и коррекция на высоком уровне)
Не в сети
Профиль  
Начать новую темуОтветить на тему  [ Сообщений: 2 ] 
Вы не можете начинать темы
Вы не можете отвечать на сообщения
Вы не можете редактировать свои сообщения
Вы не можете удалять свои сообщения