Начать новую темуОтветить на тему  [ Сообщений: 2 ] 
Торрент файл
Размер: 3.21 GB • Зарегистрирован: 11 месяцев • Статус: * Не проверено
Скачан: 6 раз • Желающих скачать: 0 • Поблагодарили: 2 раза
 Раздают: 0  |  0 KB/s  ]   Качают: 0  |  0 KB/s  ] 
 Полного источника не было 2 месяца 12 дней 
Сообщения
 Добавлено: 2016-01-05 19:37
RG-ELEKTRO
Аватара пользователя
Стаж: 2 года 3 месяца
Сообщений: 7928
Спасибок: 53792
Лайков: 3304
Ночные совы / Night Owls


Изображение


Год выпуска: 2015
Страна: США (Haven Entertainment)
Жанр: драма, комедия
Продолжительность: 01:32:00
Перевод: Любительский (одноголосый закадровый) [VANO] + Оригинальная звуковая дорожка

Режиссёр: Чарльз Худ
В ролях: Адам Палли, Роза Салазар, Роб Хюбель, Тони Хейл, Питер Краузе
Описание: Трудоголик Кевин после банкета оказывается в доме его босса с прекрасной Мадлен. Почему они оказались именно там и как не дать уснуть новой возлюбленной?

Изображение Изображение Изображение
Качество: WEB-DL 1080p
Формат: MKV
Видео кодек: MPEG-4 AVC
Аудио кодек: AC3
Видео: MPEG-4 AVC, 4313 kb/s, 1920x792
Аудио #1: AC3, 192 kb/s (2 ch) [Любительский (одноголосый закадровый)]
Аудио #2: English: AC3, 384 kb/s (6 ch) [Оригинальная звуковая дорожка]
Субтитры: English

"MI"
Format : Matroska
Format version : Version 2
File size : 3.21 GiB
Duration : 1h 32mn
Overall bit rate : 4 989 Kbps
Encoded date : UTC 2016-01-05 15:47:42
Writing application : mkvmerge v7.8.0 ('River Man') 32bit built on Apr 3 2015 12:11:22
Writing library : libebml v1.3.1 + libmatroska v1.4.2

Video
ID : 1
Format : AVC
Format/Info : Advanced Video Codec
Format profile : High@L4
Format settings, CABAC : Yes
Format settings, ReFrames : 5 frames
Codec ID : V_MPEG4/ISO/AVC
Duration : 1h 32mn
Bit rate : 4 313 Kbps
Width : 1 920 pixels
Height : 792 pixels
Display aspect ratio : 2.40:1
Frame rate mode : Constant
Frame rate : 23.976 fps
Color space : YUV
Chroma subsampling : 4:2:0
Bit depth : 8 bits
Scan type : Progressive
Bits/(Pixel*Frame) : 0.118
Stream size : 2.77 GiB (86%)
Language : English
Default : Yes
Forced : No
Color range : Limited
Color primaries : BT.709
Transfer characteristics : BT.709
Matrix coefficients : BT.709

Audio #1
ID : 2
Format : AC-3
Format/Info : Audio Coding 3
Mode extension : CM (complete main)
Format settings, Endianness : Big
Codec ID : A_AC3
Duration : 1h 32mn
Bit rate mode : Constant
Bit rate : 192 Kbps
Channel(s) : 2 channels
Channel positions : Front: L R
Sampling rate : 48.0 KHz
Bit depth : 16 bits
Compression mode : Lossy
Stream size : 126 MiB (4%)
Language : Russian
Default : Yes
Forced : No

Audio #2
ID : 3
Format : AC-3
Format/Info : Audio Coding 3
Mode extension : CM (complete main)
Format settings, Endianness : Big
Codec ID : A_AC3
Duration : 1h 32mn
Bit rate mode : Constant
Bit rate : 384 Kbps
Channel(s) : 6 channels
Channel positions : Front: L C R, Side: L R, LFE
Sampling rate : 48.0 KHz
Bit depth : 16 bits
Compression mode : Lossy
Stream size : 253 MiB (8%)
Language : English
Default : No
Forced : No

Text
ID : 4
Format : UTF-8
Codec ID : S_TEXT/UTF8
Codec ID/Info : UTF-8 Plain Text
Language : English
Default : No
Forced : No

Menu
00:00:00.000 : en:1
00:11:43.000 : en:2
00:24:37.000 : en:3
00:38:04.000 : en:4
00:50:58.000 : en:5
01:00:48.000 : en:6
01:09:10.000 : en:7
01:19:46.000 : en:8
01:29:30.000 : en:9
Свернуть

Скриншоты
Изображение
Изображение
Изображение
Свернуть
Изображение


Изображение Изображение
_________________
Не ищите меня в "ВКонтакте", в "Одноклассниках" меня нет - я на трекерах сижу!
Не в сети
Профиль  
 Добавлено: 2016-01-07 14:41 (спустя 1 день 19 часов)
Аватара пользователя
Стаж: 7 лет 11 месяцев
Сообщений: 997
Лайков: 74
девочка хороша)
Не в сети
Профиль  
Начать новую темуОтветить на тему  [ Сообщений: 2 ] 
Вы не можете начинать темы
Вы не можете отвечать на сообщения
Вы не можете редактировать свои сообщения
Вы не можете удалять свои сообщения