Начать новую темуОтветить на тему  [ 1 сообщение ] 
Торрент файл
Размер: 13.6 GB • Зарегистрирован: 8 месяцев • Статус: * Не проверено
Скачан: 92 раза • Желающих скачать: 0 • Поблагодарили: 20 раз
 Раздают: 2  |  124 KB/s  ]   Качают: 0  |  0 KB/s  ] 
Сообщения
 Добавлено: 2016-03-05 12:47
RG-ELEKTRO
Аватара пользователя
Стаж: 2 года 3 месяца
Сообщений: 7928
Спасибок: 53752
Лайков: 3304
Омерзительная восьмерка / The Hateful Eight

Изображение

Изображение


Год выпуска: 2015
Страна: США
Жанр: вестерн
Продолжительность: 02:47:00
Перевод: Любительский многоголосый (Paradox & Omskbird records) + Авторский одноголосый (Есарев) + Авторский одноголосый (Матвеев)

Режиссёр: Квентин Тарантино
В ролях: Курт Рассел, Сэмюэл Л. Джексон, Тим Рот, Майкл Мэдсен, Дженнифер Джейсон Ли, Ченнинг Татум, Уолтон Гоггинс, Зои Белл, Брюс Дерн, Демиан Бишир
Описание: США после Гражданской войны. Легендарный охотник за головами Джон Рут по кличке Вешатель конвоирует заключенную. По пути к ним прибивается еще один охотник. Снежная буря вынуждает всех троих искать укрытие в лавке на отшибе, где уже расположилась весьма пестрая компания: генерал, шериф, мексиканец, француз и ковбой... И один из них - не тот, за кого себя выдает.

Изображение Изображение
Качество: BDRip 1080p
Формат: MKV
Видео кодек: MPEG-4 AVC
Аудио кодек: AC3 / DTS
Видео: MPEG-4 AVC, 1920x704, 8755 Kbps, 23.976fp
Аудио #1: AC3, 6 ch, 448 Кбит/с [Любительский многоголосый (Paradox & Omskbird records)]
Аудио #2: AC3, 6 ch, 448 Кбит/с [Авторский одноголосый (Есарев)]
Аудио #3: AC3, 6 ch, 448 Кбит/с [Авторский одноголосый (Матвеев)]
Аудио #4: Английский (DTS, 6 ch, 1509 Кбит/с) [Оригинал]
Субтитры: Русские (Матвеев), английские

"MI"
Общее
Уникальный идентификатор : 176484402015731686598995782409951223993 (0x84C5A8D21AB3BA889511EC93DA11A0B9)
Полное имя : D:FilmThe.Hateful.Eight.2015.BDRip.1080p.mkv
Формат : Matroska
Версия формата : Version 2
Размер файла : 13,6 Гбайт
Продолжительность : 2 ч. 47 м.
Общий поток : 11,6 Мбит/сек
Дата кодирования : UTC 2016-03-05 08:34:18
Программа кодирования : mkvmerge v4.0.0 ('The Stars were mine') сборка от Jun 6 2010 16:18:42
Библиотека кодирования : libebml v1.0.0 + libmatroska v1.0.0

Видео
Идентификатор : 1
Формат : AVC
Формат/Информация : Advanced Video Codec
Профиль формата : High@L4.1
Параметр CABAC формата : Да
Параметр ReFrames формата : 5 кадров
Идентификатор кодека : V_MPEG4/ISO/AVC
Продолжительность : 2 ч. 47 м.
Битрейт : 8755 Кбит/сек
Ширина : 1920 пикселей
Высота : 704 пикселя
Соотношение сторон : 2,727
Режим частоты кадров : Постоянный
Частота кадров : 23,976 кадра/сек
Цветовое пространство : YUV
Субдискретизация насыщенности : 4:2:0
Битовая глубина : 8 бит
Тип развёртки : Прогрессивная
Бит/(Пиксели*Кадры) : 0.270
Размер потока : 9,99 Гбайт (73%)
Библиотека кодирования : x264 core 148 r2665 a01e339
Настройки программы : cabac=1 / ref=5 / deblock=1:0:0 / analyse=0x3:0x133 / me=umh / subme=7 / psy=1 / psy_rd=1.00:0.00 / mixed_ref=1 / me_range=16 / chroma_me=1 / trellis=1 / 8x8dct=1 / cqm=0 / deadzone=21,11 / fast_pskip=0 / chroma_qp_offset=-2 / threads=18 / lookahead_threads=3 / sliced_threads=0 / nr=0 / decimate=1 / interlaced=0 / bluray_compat=0 / constrained_intra=0 / bframes=3 / b_pyramid=2 / b_adapt=1 / b_bias=0 / direct=1 / weightb=1 / open_gop=0 / weightp=2 / keyint=250 / keyint_min=23 / scenecut=40 / intra_refresh=0 / rc_lookahead=40 / rc=2pass / mbtree=1 / bitrate=8755 / ratetol=1.0 / qcomp=0.60 / qpmin=0 / qpmax=69 / qpstep=4 / cplxblur=20.0 / qblur=0.5 / ip_ratio=1.40 / aq=1:1.00
Язык : English
Default : Нет
Forced : Нет

Аудио #1
Идентификатор : 2
Формат : AC-3
Формат/Информация : Audio Coding 3
Расширение режима : CM (complete main)
Параметр Endianness формата : Big
Идентификатор кодека : A_AC3
Продолжительность : 2 ч. 47 м.
Вид битрейта : Постоянный
Битрейт : 448 Кбит/сек
Каналы : 6 каналов
Расположение каналов : Front: L C R, Side: L R, LFE
Частота : 48,0 КГц
Частота кадров : 31,250 кадров/сек (1536 spf)
Метод сжатия : С потерями
Размер потока : 538 Мбайт (4%)
Заголовок : Paradox & Omskbird records
Язык : Russian
Default : Да
Forced : Да

Аудио #2
Идентификатор : 3
Формат : AC-3
Формат/Информация : Audio Coding 3
Расширение режима : CM (complete main)
Параметр Endianness формата : Big
Идентификатор кодека : A_AC3
Продолжительность : 2 ч. 47 м.
Вид битрейта : Постоянный
Битрейт : 448 Кбит/сек
Каналы : 6 каналов
Расположение каналов : Front: L C R, Side: L R, LFE
Частота : 48,0 КГц
Частота кадров : 31,250 кадров/сек (1536 spf)
Метод сжатия : С потерями
Размер потока : 538 Мбайт (4%)
Заголовок : Есарев
Язык : Russian
Default : Нет
Forced : Нет

Аудио #3
Идентификатор : 4
Формат : AC-3
Формат/Информация : Audio Coding 3
Расширение режима : CM (complete main)
Параметр Endianness формата : Big
Идентификатор кодека : A_AC3
Продолжительность : 2 ч. 47 м.
Вид битрейта : Постоянный
Битрейт : 448 Кбит/сек
Каналы : 6 каналов
Расположение каналов : Front: L C R, Side: L R, LFE
Частота : 48,0 КГц
Частота кадров : 31,250 кадров/сек (1536 spf)
Метод сжатия : С потерями
Размер потока : 538 Мбайт (4%)
Заголовок : Матвеев
Язык : Russian
Default : Нет
Forced : Нет

Аудио #4
Идентификатор : 7
Формат : DTS
Формат/Информация : Digital Theater Systems
Режим : 16
Параметр Endianness формата : Big
Идентификатор кодека : A_DTS
Продолжительность : 2 ч. 47 м.
Вид битрейта : Постоянный
Битрейт : 1509 Кбит/сек
Каналы : 6 каналов
Расположение каналов : Front: L C R, Side: L R, LFE
Частота : 48,0 КГц
Частота кадров : 93,750 кадра/сек (512 spf)
Битовая глубина : 24 бит
Метод сжатия : С потерями
Задержка видео : 11 мс.
Размер потока : 1,77 Гбайт (13%)
Язык : English
Default : Нет
Forced : Нет

Текст #1
Идентификатор : 5
Формат : UTF-8
Идентификатор кодека : S_TEXT/UTF8
Идентификатор кодека/Информация : UTF-8 Plain Text
Заголовок : Full Матвеев
Язык : Russian
Default : Нет
Forced : Нет

Текст #2
Идентификатор : 6
Формат : UTF-8
Идентификатор кодека : S_TEXT/UTF8
Идентификатор кодека/Информация : UTF-8 Plain Text
Заголовок : Full
Язык : English
Default : Да
Forced : Нет

Меню
00:00:00.000 : en:00:00:00.000
00:11:16.092 : en:00:11:16.092
00:14:55.561 : en:00:14:55.561
00:35:02.309 : en:00:35:02.309
00:43:21.057 : en:00:43:21.057
01:25:18.405 : en:01:25:18.405
01:29:54.306 : en:01:29:54.306
01:36:28.533 : en:01:36:28.533
01:38:05.421 : en:01:38:05.421
01:42:22.219 : en:01:42:22.219
01:58:15.755 : en:01:58:15.755
01:59:30.330 : en:01:59:30.330
02:02:24.087 : en:02:02:24.087
02:06:18.821 : en:02:06:18.821
02:08:36.834 : en:02:08:36.834
02:11:51.862 : en:02:11:51.862
02:29:52.025 : en:02:29:52.025
02:34:58.706 : en:02:34:58.706
02:37:41.869 : en:02:37:41.869
02:41:12.913 : en:02:41:12.913
02:43:13.492 : en:02:43:13.492
02:45:57.072 : en:02:45:57.072
Свернуть

Скриншоты
Изображение
Изображение
Изображение
Свернуть
Изображение


Изображение Изображение
_________________
Не ищите меня в "ВКонтакте", в "Одноклассниках" меня нет - я на трекерах сижу!
Не в сети
Профиль  
Начать новую темуОтветить на тему  [ 1 сообщение ] 
Вы не можете начинать темы
Вы не можете отвечать на сообщения
Вы не можете редактировать свои сообщения
Вы не можете удалять свои сообщения