Начать новую темуОтветить на тему  [ 1 сообщение ] 
Торрент файл
Размер: 7.76 GB • Зарегистрирован: 7 месяцев • Статус: * Не проверено
Скачан: 12 раз • Желающих скачать: 0 • Поблагодарили: 3 раза
 Раздают: 0  |  0 KB/s  ]   Качают: 0  |  0 KB/s  ] 
 Полного источника не было 3 дня 
Сообщения
 Добавлено: 2016-04-14 13:10
RG-ELEKTRO
Аватара пользователя
Стаж: 2 года 3 месяца
Сообщений: 7928
Спасибок: 53736
Лайков: 3304
Паранормальное явление 5: Призраки в 3D / Paranormal Activity: The Ghost Dimension

Изображение

Изображение


Год выпуска: 2015
Страна: США (Blumhouse Productions, Paramount Pictures)
Жанр: ужасы
Продолжительность: 01:28:04
Перевод: Профессиональный (дубляж) [Лицензия]

Режиссёр: Грегори Плоткин
В ролях: Крис Дж. Мюррэй, Бриттани Шоу, Айви Джордж, Дэн Гилл, Оливия Тейлор Дадли, Хлоя Ксенджери, Джесика Браун, Дон МакМанус, Майкл Кравич, Халли Фут
Описание: Молодые супруги Райан и Эмили, и их 6-летняя дочь Лейла переезжают в довольно симпатичный и тихий дом. В гараже они находят видеокамеру и коробку кассет. Но они даже не подозревали, что они увидят, когда заглянут в объектив камеры…

Изображение Изображение Изображение
Качество: BDRip 1080p
Формат: MKV
Видео кодек: MPEG-4 AVC
Аудио кодек: AC3
Видео: MPEG-4 AVC, 1920x1080, 11332 Кбит/сек, 23,976 кадр/сек, High@L4.1, 16:9, 0.228 Бит/[Пиксели*Кадры]
Аудио #1: AC3, 640 Кбит/сек, 6 канала(ов), 48,0 КГц [Профессиональный (дубляж)]
Аудио #2: AC3, 640 Кбит/сек, 6 канала(ов), 48,0 КГц | ENG
Субтитры: русские (полные + форс), английские (Full)

"MI"
Format : Matroska
Format version : Version 2
File size : 7.76 GiB
Duration : 1h 28mn
Overall bit rate : 12.6 Mbps
Movie name : Паранормальное явление 5: Призраки.(2015).BDRip.1080p.[envy]
Encoded date : UTC 2016-04-09 07:39:04
Writing application : mkvmerge v5.8.0 ('No Sleep / Pillow') built on Sep 2 2012 15:37:04
Writing library : libebml v1.2.3 + libmatroska v1.3.0

Video
ID : 1
Format : AVC
Format/Info : Advanced Video Codec
Format profile : High@L4.1
Format settings, CABAC : Yes
Format settings, ReFrames : 4 frames
Codec ID : V_MPEG4/ISO/AVC
Duration : 1h 28mn
Bit rate : 11.3 Mbps
Width : 1 920 pixels
Height : 1 080 pixels
Display aspect ratio : 16:9
Frame rate mode : Constant
Frame rate : 23.976 (24000/1001) fps
Color space : YUV
Chroma subsampling : 4:2:0
Bit depth : 8 bits
Scan type : Progressive
Bits/(Pixel*Frame) : 0.228
Stream size : 6.82 GiB (88%)
Title : Паранормальное явление 5: Призраки.(2015).BDRip.1080p.[envy]
Writing library : x264 core 148 r2665 a01e339
Encoding settings : cabac=1 / ref=4 / deblock=1:-3:-3 / analyse=0x3:0x133 / me=umh / subme=11 / psy=1 / psy_rd=1.00:0.00 / mixed_ref=1 / me_range=32 / chroma_me=1 / trellis=2 / 8x8dct=1 / cqm=0 / deadzone=21,11 / fast_pskip=0 / chroma_qp_offset=-2 / threads=12 / lookahead_threads=2 / sliced_threads=0 / nr=0 / decimate=1 / interlaced=0 / bluray_compat=0 / constrained_intra=0 / bframes=8 / b_pyramid=2 / b_adapt=2 / b_bias=0 / direct=3 / weightb=1 / open_gop=0 / weightp=2 / keyint=240 / keyint_min=23 / scenecut=40 / intra_refresh=0 / rc=2pass / mbtree=0 / bitrate=11332 / ratetol=2.0 / qcomp=0.60 / qpmin=0 / qpmax=69 / qpstep=4 / cplxblur=20.0 / qblur=0.5 / ip_ratio=1.40 / pb_ratio=1.30 / aq=2:0.70
Language : English
Default : Yes
Forced : No

Audio #1
ID : 2
Format : AC-3
Format/Info : Audio Coding 3
Mode extension : CM (complete main)
Format settings, Endianness : Big
Codec ID : A_AC3
Duration : 1h 28mn
Bit rate mode : Constant
Bit rate : 640 Kbps
Channel(s) : 6 channels
Channel positions : Front: L C R, Side: L R, LFE
Sampling rate : 48.0 KHz
Frame rate : 31.250 fps (1536 spf)
Compression mode : Lossy
Stream size : 403 MiB (5%)
Title : Dub
Language : Russian
Default : Yes
Forced : No

Audio #2
ID : 3
Format : AC-3
Format/Info : Audio Coding 3
Mode extension : CM (complete main)
Format settings, Endianness : Big
Codec ID : A_AC3
Duration : 1h 28mn
Bit rate mode : Constant
Bit rate : 640 Kbps
Channel(s) : 6 channels
Channel positions : Front: L C R, Side: L R, LFE
Sampling rate : 48.0 KHz
Frame rate : 31.250 fps (1536 spf)
Compression mode : Lossy
Stream size : 403 MiB (5%)
Title : Eng
Language : English
Default : No
Forced : No

Text #1
ID : 4
Format : UTF-8
Codec ID : S_TEXT/UTF8
Codec ID/Info : UTF-8 Plain Text
Title : Rus forced
Language : Russian
Default : Yes
Forced : Yes

Text #2
ID : 5
Format : UTF-8
Codec ID : S_TEXT/UTF8
Codec ID/Info : UTF-8 Plain Text
Title : Rus full
Language : Russian
Default : No
Forced : No

Text #3
ID : 6
Format : UTF-8
Codec ID : S_TEXT/UTF8
Codec ID/Info : UTF-8 Plain Text
Title : Eng full
Language : English
Default : No
Forced : No

Menu
00:00:00.000 : :Chapter 01
00:01:56.074 : :Chapter 02
00:09:23.312 : :Chapter 03
00:17:33.177 : :Chapter 04
00:24:11.491 : :Chapter 05
00:29:08.288 : :Chapter 06
00:36:40.990 : :Chapter 07
00:42:59.451 : :Chapter 08
00:49:04.441 : :Chapter 09
00:56:20.668 : :Chapter 10
01:04:23.609 : :Chapter 11
01:11:25.322 : :Chapter 12
01:22:39.120 : :Chapter 13
Свернуть

Скриншоты
Изображение
Изображение
Изображение
Свернуть
Изображение


Изображение Изображение
_________________
Не ищите меня в "ВКонтакте", в "Одноклассниках" меня нет - я на трекерах сижу!
Не в сети
Профиль  
Начать новую темуОтветить на тему  [ 1 сообщение ] 
Вы не можете начинать темы
Вы не можете отвечать на сообщения
Вы не можете редактировать свои сообщения
Вы не можете удалять свои сообщения