Начать новую темуОтветить на тему  [ Сообщений: 4 ] 
Торрент файл
Размер: 5.75 GB • Зарегистрирован: 11 месяцев • Статус: * Не проверено
Скачан: 16 раз • Желающих скачать: 0 • Поблагодарили: 3 раза
 Раздают: 0  |  0 KB/s  ]   Качают: 0  |  0 KB/s  ] 
 Полного источника не было 5 месяцев 5 дней 
Сообщения
 Добавлено: 2016-01-04 16:52
RG-ELEKTRO
Аватара пользователя
Стаж: 2 года 3 месяца
Сообщений: 7928
Спасибок: 53780
Лайков: 3304
Поединок / Annapolis


Изображение


Год выпуска: 2006
Страна: США
Жанр: драма, мелодрама, спорт
Продолжительность: 01:43:27
Перевод: Профессиональный (многоголосый закадровый) + Оригинальная звуковая дорожка
Субтитры: русские (Forced), русские, английские

Режиссёр: Джастин Лин
В ролях: Джеймс Франко , Тайриз Гибсон , Джордана Брюстер , Мэка Фоли, Джим Пэррак, Донни Уолберг, Брайан Гудман, Билли Финниган, Кэти Хейн, Джимми Лин, Чарльз Нэпьер, Хезер Хендерсон
Описание: Пройдя жестокий отбор и конкурс в 42 человека на место, Джейк Хаурд вступает в элитную военно-морскую академию Аннаполис. Но решив, что главные проблемы теперь позади, он сильно ошибся.

Беспощадная муштра, строгая дисциплина и феноменальные учебные и физические нагрузки обрушиваются на него будто каменная плитка. И вдобавок Джейка с первого дня избирает в жертвы злейший офицер академии, лейтенант Коул. Ощутив в нем задатки лидера, он начинает все сильнее давить на кадета, чтобы проверить, не сломается ли тот.

Однако Джейк принимает вызов. Поняв, что единственный способ выжить в аду — завоевать уважение главного черта, он решает принять участие в чемпионате Аннаполиса по боксу, чтобы сойтись в бою со своим мучителем там, где не имеют значение ни звания, ни статус, ни даже сила, а лишь одна воля к победе — на ринге…

Изображение

Качество: BDRip 720p
Формат: MKV
Видео кодек: MPEG-4 AVC
Аудио кодек: AC3
Видео: MPEG-4 AVC, 1280x692, 7140 Кбит/сек, 23,976 кадр/сек, 0,336 Бит/[Пиксели*Кадры]
Аудио #1: AC3 / 2.0 / 48 kHz / 192 kbps [Профессиональный (многоголосый закадровый)]
Аудио #2: Aнглийский / AC3 / 5.1 / 48 kHz / 640 kbps / [Оригинальная звуковая дорожка]
Субтитры: русские (Forced), русские, английские

"MI"
Format : Matroska
Format version : Version 2
File size : 5.75 GiB
Duration : 1h 43mn
Overall bit rate : 7 953 Kbps
Movie name : Annapolis.(2006).BDRip.720p.[denis100]
Encoded date : UTC 2016-01-04 10:53:33
Writing application : mkvmerge v5.8.0 ('No Sleep / Pillow') built on Sep 2 2012 15:37:04
Writing library : libebml v1.2.3 + libmatroska v1.3.0

Video
ID : 1
Format : AVC
Format/Info : Advanced Video Codec
Format profile : High@L4.1
Format settings, CABAC : No
Format settings, ReFrames : 9 frames
Codec ID : V_MPEG4/ISO/AVC
Duration : 1h 43mn
Bit rate : 7 140 Kbps
Width : 1 280 pixels
Height : 692 pixels
Display aspect ratio : 1.850
Frame rate : 23.976 fps
Color space : YUV
Chroma subsampling : 4:2:0
Bit depth : 8 bits
Scan type : Progressive
Bits/(Pixel*Frame) : 0.336
Stream size : 5.03 GiB (88%)
Title : Annapolis.(2006).BDRip.720p.[denis100]
Writing library : x264 core 148 r2638 7599210
Encoding settings : cabac=0 / ref=9 / deblock=1:-3:-3 / analyse=0x3:0x133 / me=umh / subme=11 / psy=1 / psy_rd=1.00:0.10 / mixed_ref=1 / me_range=32 / chroma_me=1 / trellis=2 / 8x8dct=1 / cqm=0 / deadzone=21,11 / fast_pskip=0 / chroma_qp_offset=-3 / threads=6 / lookahead_threads=1 / sliced_threads=0 / nr=0 / decimate=1 / interlaced=0 / bluray_compat=0 / constrained_intra=0 / bframes=10 / b_pyramid=2 / b_adapt=2 / b_bias=0 / direct=3 / weightb=1 / open_gop=0 / weightp=2 / keyint=240 / keyint_min=23 / scenecut=40 / intra_refresh=0 / rc=2pass / mbtree=0 / bitrate=7140 / ratetol=1.0 / qcomp=0.60 / qpmin=0 / qpmax=69 / qpstep=4 / cplxblur=20.0 / qblur=0.5 / ip_ratio=1.40 / pb_ratio=1.30 / aq=1:0.90
Language : English
Default : Yes
Forced : No

Audio #1
ID : 2
Format : AC-3
Format/Info : Audio Coding 3
Format profile : Dolby Digital
Mode extension : CM (complete main)
Codec ID : A_AC3
Duration : 1h 43mn
Bit rate mode : Constant
Bit rate : 192 Kbps
Channel(s) : 2 channels
Channel positions : Front: L R
Sampling rate : 48.0 KHz
Bit depth : 16 bits
Compression mode : Lossy
Stream size : 142 MiB (2%)
Title : MVO
Language : Russian
Default : Yes
Forced : No

Audio #2
ID : 3
Format : AC-3
Format/Info : Audio Coding 3
Mode extension : CM (complete main)
Codec ID : A_AC3
Duration : 1h 43mn
Bit rate mode : Constant
Bit rate : 640 Kbps
Channel(s) : 6 channels
Channel positions : Front: L C R, Side: L R, LFE
Sampling rate : 48.0 KHz
Bit depth : 16 bits
Compression mode : Lossy
Stream size : 474 MiB (8%)
Language : English
Default : No
Forced : No

Text #1
ID : 4
Format : UTF-8
Codec ID : S_TEXT/UTF8
Codec ID/Info : UTF-8 Plain Text
Title : Forced
Language : Russian
Default : Yes
Forced : No

Text #2
ID : 5
Format : UTF-8
Codec ID : S_TEXT/UTF8
Codec ID/Info : UTF-8 Plain Text
Language : Russian
Default : No
Forced : No

Text #3
ID : 6
Format : UTF-8
Codec ID : S_TEXT/UTF8
Codec ID/Info : UTF-8 Plain Text
Language : English
Default : No
Forced : No

Menu
00:00:00.000 : en:00:00:00.000
00:03:22.202 : en:00:03:22.202
00:10:57.073 : en:00:10:57.073
00:13:30.893 : en:00:13:30.893
00:20:24.181 : en:00:20:24.181
00:27:37.489 : en:00:27:37.489
00:32:09.594 : en:00:32:09.594
00:37:05.181 : en:00:37:05.181
00:46:37.211 : en:00:46:37.211
00:52:05.205 : en:00:52:05.205
01:02:00.342 : en:01:02:00.342
01:07:30.880 : en:01:07:30.880
01:11:18.941 : en:01:11:18.941
01:17:39.071 : en:01:17:39.071
01:22:05.838 : en:01:22:05.838
01:37:30.178 : en:01:37:30.178
Свернуть

Скриншоты
Изображение
Изображение
Изображение
Изображение
Свернуть
Изображение


Изображение Изображение
Не в сети
Профиль  
 Добавлено: 2016-01-04 18:01 (спустя 1 час 9 минут)
Музыкоед
Аватара пользователя
Стаж: 7 лет 4 месяца
Сообщений: 2111
Лайков: 466
А поменьше объёмчиком релиз?.. Посмотреть хотцца, но шесть гигов жалко до слёз!
Не в сети
Профиль  
 Добавлено: 2016-01-04 19:54 (спустя 1 час 52 минуты)
Аватара пользователя
Стаж: 8 лет 7 месяцев
Сообщений: 672
Спасибок: 84
Лайков: 84
аналполис? спорт? не буду смотреть)))
Не в сети
Профиль  
 Добавлено: 2016-01-04 21:14 (спустя 1 час 20 минут)
RG-ELEKTRO
Аватара пользователя
Стаж: 2 года 3 месяца
Сообщений: 7928
Спасибок: 53780
Лайков: 3304

Mr Know-All:

А поменьше объёмчиком релиз?.. Посмотреть хотцца, но шесть гигов жалко до слёз!
пока нет...
_________________
Не ищите меня в "ВКонтакте", в "Одноклассниках" меня нет - я на трекерах сижу!
Не в сети
Профиль  
Начать новую темуОтветить на тему  [ Сообщений: 4 ] 
Вы не можете начинать темы
Вы не можете отвечать на сообщения
Вы не можете редактировать свои сообщения
Вы не можете удалять свои сообщения