Начать новую темуОтветить на тему  [ 1 сообщение ] 
Торрент файл
Размер: 6.5 GB • Зарегистрирован: 7 месяцев • Статус: * Не проверено
Скачан: 7 раз • Желающих скачать: 0 • Поблагодарили: 1 раз
 Раздают: 0  |  0 KB/s  ]   Качают: 0  |  0 KB/s  ] 
 Полного источника не было 3 месяца 17 дней 
Сообщения
 Добавлено: 2016-04-05 11:54
RG-ELEKTRO
Аватара пользователя
Стаж: 2 года 3 месяца
Сообщений: 7928
Спасибок: 53745
Лайков: 3304
Похищение / Rapt

Изображение

Изображение

Год выпуска: 2009
Страна: Франция, Бельгия
Жанр: триллер, драма
Продолжительность: 02:05:33
Перевод: Профессиональный (двухголосый закадровый) (студия Elrom) + Любительский (одноголосый закадровый) (den904) + Оригинальная звуковая дорожка
Субтитры: Русские

Режиссёр: Люка Бельво
Сценарист: Люка Бельво
Оператор: Пьер Милон
Композитор: Риккардо Дель Фра
В ролях: Иван Атталь, Энн Консиньи, Андре Маркон, Франсуаз Фабиан, Алекс Дека, Мишель Войта, Жерар Мейлан, Максим Лефрансуа, Кристоф Курочкин
Описание: Президент компании похищен преступной группировкой с целью выкупа. В это же время семья, компания похищенного и правоохранительные органы никак не могут договориться, как вести расследование, и гнут свою линию.
Мировая премьера: 18 ноября 2009
Кассовые сборы: $1 215 759

Изображение Изображение

Качество: BDRip 720p
Формат: MKV
Видео кодек: MPEG-4 AVC
Аудио кодек: AC3 / DTS
Видео: MPEG-4 AVC, 1280x544, 23 fps, 6000 kbps
Аудио #1: AC3, 2 ch, 48 kHz, 192 kbps [Профессиональный (двухголосый закадровый) (студия Elrom)]
Аудио #2: 48 KHz, DTS, 6 ch, 1510 kbps [Любительский (одноголосый закадровый)]
Аудио #3: 48 KHz, DTS, 6 ch, 1510 kbps [Оригинальная звуковая дорожка]
Субтитры: Русские

"MI"
Общее
Уникальный идентификатор : 212187317906191079635318964598616209273 (0x9FA1CA7AE0DB27A78FE791C423DDB779)
Полное имя : D:\фильмы\Rapt 2009 BDRip 720p.mkv
Формат : Matroska
Версия формата : Version 2
Размер файла : 6,50 Гбайт
Продолжительность : 2 ч. 5 м.
Общий поток : 7407 Кбит/сек
Дата кодирования : UTC 2012-03-02 16:39:42
Программа кодирования : mkvmerge v5.0.1 ('Es ist Sommer') built on Oct 9 2011 11:55:43
Библиотека кодирования : libebml v1.2.2 + libmatroska v1.3.0

Видео
Идентификатор : 1
Формат : AVC
Формат/Информация : Advanced Video Codec
Профиль формата : High@L4.1
Параметр CABAC формата : Да
Параметр ReFrames формата : 12 кадров
Идентификатор кодека : V_MPEG4/ISO/AVC
Продолжительность : 2 ч. 5 м.
Битрейт : 4195 Кбит/сек
Ширина : 1280 пикселей
Высота : 544 пикселя
Соотношение сторон : 2,35:1
Режим частоты кадров : Постоянный
Частота кадров : 23,976 кадра/сек
Цветовое пространство : YUV
Субдискретизация насыщенности : 4:2:0
Битовая глубина : 8 бит
Тип развёртки : Прогрессивная
Бит/(Пиксели*Кадры) : 0.251
Размер потока : 3,55 Гбайт (55%)
Заголовок : Rapt.2009.BluRay.720p.DTS.x264-CHD
Библиотека кодирования : x264 core 112 r1834 a51816a
Настройки программы : cabac=1 / ref=12 / deblock=1:-3:-3 / analyse=0x3:0x113 / me=umh / subme=9 / psy=1 / psy_rd=1.05:0.10 / mixed_ref=1 / me_range=32 / chroma_me=1 / trellis=2 / 8x8dct=1 / cqm=0 / deadzone=21,11 / fast_pskip=0 / chroma_qp_offset=-2 / threads=12 / sliced_threads=0 / nr=0 / decimate=1 / interlaced=0 / constrained_intra=0 / bframes=6 / b_pyramid=2 / b_adapt=2 / b_bias=0 / direct=3 / weightb=1 / open_gop=0 / weightp=2 / keyint=250 / keyint_min=23 / scenecut=40 / intra_refresh=0 / rc_lookahead=40 / rc=2pass / mbtree=0 / bitrate=4195 / ratetol=1.0 / qcomp=0.70 / qpmin=0 / qpmax=51 / qpstep=4 / cplxblur=20.0 / qblur=0.5 / vbv_maxrate=45000 / vbv_bufsize=40000 / ip_ratio=1.40 / pb_ratio=1.30 / aq=1:0.60 / nal_hrd=none
Язык : French
Default : Да
Forced : Нет

Аудио #1
Идентификатор : 2
Формат : AC-3
Формат/Информация : Audio Coding 3
Расширение режима : CM (complete main)
Параметр Endianness формата : Big
Идентификатор кодека : A_AC3
Продолжительность : 2 ч. 5 м.
Вид битрейта : Постоянный
Битрейт : 192 Кбит/сек
Каналы : 2 канала
Расположение каналов : Front: L R
Частота : 48,0 КГц
Частота кадров : 31,250 кадров/сек (1536 spf)
Метод сжатия : С потерями
Размер потока : 172 Мбайт (3%)
Заголовок : DVO студия Elrom
Язык : Russian
Default : Да
Forced : Нет

Аудио #2
Идентификатор : 3
Формат : DTS
Формат/Информация : Digital Theater Systems
Режим : 16
Параметр Endianness формата : Big
Идентификатор кодека : A_DTS
Продолжительность : 2 ч. 5 м.
Вид битрейта : Постоянный
Битрейт : 1510 Кбит/сек
Каналы : 6 каналов
Расположение каналов : Front: L C R, Side: L R, LFE
Частота : 48,0 КГц
Частота кадров : 93,750 кадра/сек (512 spf)
Битовая глубина : 24 бит
Метод сжатия : С потерями
Размер потока : 1,32 Гбайт (20%)
Заголовок : VO den904
Язык : Russian
Default : Нет
Forced : Нет

Аудио #3
Идентификатор : 4
Формат : DTS
Формат/Информация : Digital Theater Systems
Режим : 16
Параметр Endianness формата : Big
Идентификатор кодека : A_DTS
Продолжительность : 2 ч. 5 м.
Вид битрейта : Постоянный
Битрейт : 1509 Кбит/сек
Каналы : 6 каналов
Расположение каналов : Front: L C R, Side: L R, LFE
Частота : 48,0 КГц
Частота кадров : 93,750 кадра/сек (512 spf)
Битовая глубина : 24 бит
Метод сжатия : С потерями
Размер потока : 1,32 Гбайт (20%)
Заголовок : DTS
Язык : French
Default : Нет
Forced : Нет

Текст
Идентификатор : 5
Формат : UTF-8
Идентификатор кодека : S_TEXT/UTF8
Идентификатор кодека/Информация : UTF-8 Plain Text
Заголовок : sub Simon
Язык : Russian
Default : Нет
Forced : Нет

Свернуть

Скриншоты
Изображение
Изображение
Изображение
Свернуть
Изображение


Изображение Изображение
_________________
Не ищите меня в "ВКонтакте", в "Одноклассниках" меня нет - я на трекерах сижу!
Не в сети
Профиль  
Начать новую темуОтветить на тему  [ 1 сообщение ] 
Вы не можете начинать темы
Вы не можете отвечать на сообщения
Вы не можете редактировать свои сообщения
Вы не можете удалять свои сообщения