Начать новую темуОтветить на тему  [ 1 сообщение ] 
Торрент файл
Размер: 3.56 GB • Зарегистрирован: 11 месяцев • Статус: * Не проверено
Скачан: 29 раз • Желающих скачать: 0 • Поблагодарили: 4 раза
 Раздают: 0  |  0 KB/s  ]   Качают: 0  |  0 KB/s  ] 
 Полного источника не было 3 месяца 20 дней 
Сообщения
 Добавлено: 2015-12-19 20:38
RG-ELEKTRO
Аватара пользователя
Стаж: 2 года 3 месяца
Сообщений: 7928
Спасибок: 53785
Лайков: 3304
Последний друид: Войны гармов / Garm Wars: The Last Druid


Изображение


Год выпуска: 2014
Страна: Канада, Япония (Bandai Namco Entertainment, IG Films, Lyla Films, Production I.G.)
Жанр: фантастика, боевик, триллер
Продолжительность: 01:32:05
Перевод: Любительский (одноголосый закадровый) [Хихидок]

Режиссёр: Мамору Осии
В ролях: Лэнс Хенриксен, Кевин Дюран, Мелани Сен-Пьерр, Саммер Х. Хауэлл, Доун Форд, Эндрю Гиллис, Джордан Дик, Дэвид-Александр Куатё
Описание: События в фильме происходят в мире, известном как Аннвн. В нем не стихают войны гармов — кровавые и разрушительные сражения между тремя воинствующими племенами, в которых воюют клонированные солдаты. В своих битвах те используют силы воздуха, земли и технологии. В какой-то момент одна из клонов Хара понимает для себя, что ей самой не нужна эта битва. Направляемая стремлением узнать больше о своем предназначении в этой жизни, она покидает поле бессмысленной битвы и отправляется в далекий путь.

Изображение Изображение
Качество: BDRip 720p
Формат: MKV
Видео кодек: MPEG-4 AVC
Аудио кодек: AC3 / DTS
Видео: MPEG-4 AVC, 3577 kb/s, 1280x544
Аудио #1: AC3, 448 kb/s (6 ch) [Любительский (одноголосый закадровый)]
Аудио #2: English: DTS, 1510 kb/s (6 ch)

"MI"
Format : Matroska
Format version : Version 2
File size : 3.56 GiB
Duration : 1h 32mn
Overall bit rate : 5 535 Kbps
Encoded date : UTC 2015-12-19 14:15:17
Writing application : mkvmerge v7.8.0 ('River Man') 32bit built on Apr 3 2015 12:11:22
Writing library : libebml v1.3.1 + libmatroska v1.4.2

Video
ID : 1
Format : AVC
Format/Info : Advanced Video Codec
Format profile : High@L4.1
Format settings, CABAC : Yes
Format settings, ReFrames : 5 frames
Codec ID : V_MPEG4/ISO/AVC
Duration : 1h 32mn
Bit rate : 3 577 Kbps
Width : 1 280 pixels
Height : 544 pixels
Display aspect ratio : 2.35:1
Frame rate mode : Constant
Frame rate : 24.000 fps
Color space : YUV
Chroma subsampling : 4:2:0
Bit depth : 8 bits
Scan type : Progressive
Bits/(Pixel*Frame) : 0.214
Stream size : 2.23 GiB (63%)
Writing library : x264 core 148 r2638 7599210
Encoding settings : cabac=1 / ref=5 / deblock=1:1:1 / analyse=0x3:0x133 / me=umh / subme=8 / psy=1 / psy_rd=1.00:0.00 / mixed_ref=1 / me_range=16 / chroma_me=1 / trellis=1 / 8x8dct=1 / cqm=0 / deadzone=21,11 / fast_pskip=0 / chroma_qp_offset=-2 / threads=12 / lookahead_threads=2 / sliced_threads=0 / nr=0 / decimate=1 / interlaced=0 / bluray_compat=0 / constrained_intra=0 / bframes=3 / b_pyramid=2 / b_adapt=2 / b_bias=0 / direct=3 / weightb=1 / open_gop=0 / weightp=2 / keyint=240 / keyint_min=24 / scenecut=40 / intra_refresh=0 / rc_lookahead=50 / rc=2pass / mbtree=1 / bitrate=3577 / ratetol=1.0 / qcomp=0.60 / qpmin=0 / qpmax=69 / qpstep=4 / cplxblur=20.0 / qblur=0.5 / ip_ratio=1.40 / aq=1:1.00
Language : English
Default : Yes
Forced : No

Audio #1
ID : 2
Format : AC-3
Format/Info : Audio Coding 3
Mode extension : CM (complete main)
Format settings, Endianness : Big
Codec ID : A_AC3
Duration : 1h 32mn
Bit rate mode : Constant
Bit rate : 448 Kbps
Channel(s) : 6 channels
Channel positions : Front: L C R, Side: L R, LFE
Sampling rate : 48.0 KHz
Bit depth : 16 bits
Compression mode : Lossy
Stream size : 295 MiB (8%)
Language : Russian
Default : Yes
Forced : No

Audio #2
ID : 3
Format : DTS
Format/Info : Digital Theater Systems
Mode : 16
Format settings, Endianness : Big
Codec ID : A_DTS
Duration : 1h 32mn
Bit rate mode : Constant
Bit rate : 1 509 Kbps
Channel(s) : 6 channels
Channel positions : Front: L C R, Side: L R, LFE
Sampling rate : 48.0 KHz
Bit depth : 24 bits
Compression mode : Lossy
Stream size : 994 MiB (27%)
Language : English
Default : No
Forced : No

Menu
00:00:00.000 : en:00:00:00.000
00:10:08.667 : en:00:10:08.667
00:17:42.500 : en:00:17:42.500
00:25:49.500 : en:00:25:49.500
00:34:47.875 : en:00:34:47.875
00:46:43.917 : en:00:46:43.917
00:59:50.167 : en:00:59:50.167
01:12:45.542 : en:01:12:45.542
01:25:29.000 : en:01:25:29.000
Свернуть

Скриншоты
Изображение
Изображение
Изображение
Свернуть
Изображение


Изображение Изображение
_________________
Не ищите меня в "ВКонтакте", в "Одноклассниках" меня нет - я на трекерах сижу!
Не в сети
Профиль  
Начать новую темуОтветить на тему  [ 1 сообщение ] 
Вы не можете начинать темы
Вы не можете отвечать на сообщения
Вы не можете редактировать свои сообщения
Вы не можете удалять свои сообщения