Начать новую темуОтветить на тему  [ 1 сообщение ] 
Торрент файл
Размер: 3.83 GB • Зарегистрирован: 11 месяцев • Статус: * Не проверено
Скачан: 93 раза • Желающих скачать: 0 • Поблагодарили: 21 раз
 Раздают: 1  |  0 KB/s  ]   Качают: 0  |  0 KB/s  ] 
Сообщения
 Добавлено: 2016-01-05 00:59
DVD Release Group
Аватара пользователя
Стаж: 7 лет 1 месяц
Сообщений: 3559
Спасибок: 247353
Лайков: 1018
Про Любовь


Изображение


Год выпуска: 2015
Страна: Россия
Жанр: Комедия
Продолжительность: 01:55:15
Перевод: Не требуется
Режиссер: Анна Меликян
В ролях: Рената Литвинова, Михаил Ефремов, Мария Шалаева, Василий Ракша, Юлия Снигирь, Владимир Машков, Алексей Филимонов, Евгений Цыганов, Александра Бортич, Мария Данилюк
Описание: Что такое любовь? На этот вопрос пытаются ответить герои фильма. Вереница самых разных персонажей и историй переплетаются в этом фильме. Маленькие истории о самом разном и все о любви: молодая пара, предпочитающая жить в образах японских аниме-героев; секретарша, получившая непристойное предложение от своего босса; японка, приехавшая в Москву в поисках русского мужчины; художник-граффити в поисках красоты; бывшая жена, нанятая своим мужем для необычного задания и многое другое…
Изображение
Качество: WEB-DL 1080p
Формат: MKV
Видео кодек: H.264
Аудио кодек: AC3
Видео: 1920x804 24fps 4143kbps
Аудио: 48kHz 6ch 384kbps
"MediaInfo"
Формат : Matroska
Версия формата : Version 2
Размер файла : 3,72 Гбайт
Продолжительность : 1 ч. 55 м.
Общий поток : 4618 Кбит/сек
Дата кодирования : UTC 2016-01-04 19:50:16
Программа кодирования : mkvmerge v8.3.0 ('Over the Horizon') 64bit
Библиотека кодирования : libebml v1.3.1 + libmatroska v1.4.2

Видео
Идентификатор : 1
Формат : AVC
Формат/Информация : Advanced Video Codec
Профиль формата : High@L4.0
Параметр CABAC формата : Да
Параметр ReFrames формата : 5 кадров
Идентификатор кодека : V_MPEG4/ISO/AVC
Продолжительность : 1 ч. 55 м.
Битрейт : 4143 Кбит/сек
Ширина : 1920 пикселей
Высота : 804 пикселя
Соотношение сторон : 2,40:1
Режим частоты кадров : Постоянный
Частота кадров : 24,000 кадра/сек
Цветовое пространство : YUV
Субдискретизация насыщенности : 4:2:0
Битовая глубина : 8 бит
Тип развёртки : Прогрессивная
Бит/(Пиксели*Кадры) : 0.112
Размер потока : 3,34 Гбайт (90%)
Язык : English
Default : Да
Forced : Нет
Основные цвета : BT.709
Характеристики трансфера : BT.709
Коэффициенты матрицы : BT.709

Аудио
Идентификатор : 2
Формат : AC-3
Формат/Информация : Audio Coding 3
Расширение режима : CM (complete main)
Параметр Endianness формата : Big
Идентификатор кодека : A_AC3
Продолжительность : 1 ч. 55 м.
Вид битрейта : Постоянный
Битрейт : 384 Кбит/сек
Каналы : 6 каналов
Расположение каналов : Front: L C R, Side: L R, LFE
Частота : 48,0 КГц
Битовая глубина : 16 бит
Метод сжатия : С потерями
Размер потока : 317 Мбайт (8%)
Язык : Russian
Default : Да
Forced : Нет

Меню
00:00:00.000 : en:Глава 1
00:05:38.000 : en:Глава 2
00:11:10.000 : en:Глава 3
00:16:51.000 : en:Глава 4
00:23:34.000 : en:Глава 5
00:29:21.000 : en:Глава 6
00:36:09.000 : en:Глава 7
00:41:25.000 : en:Глава 8
00:47:23.000 : en:Глава 9
00:54:03.000 : en:Глава 10
00:59:51.000 : en:Глава 11
01:04:52.000 : en:Глава 12
01:10:14.000 : en:Глава 13
01:16:19.000 : en:Глава 14
01:21:49.000 : en:Глава 15
01:27:57.000 : en:Глава 16
01:33:51.000 : en:Глава 17
01:39:34.000 : en:Глава 18
01:45:35.000 : en:Глава 19
Свернуть

"Скриншоты"
Изображение
Изображение
Изображение
Свернуть
Не в сети
Профиль  
Начать новую темуОтветить на тему  [ 1 сообщение ] 
Вы не можете начинать темы
Вы не можете отвечать на сообщения
Вы не можете редактировать свои сообщения
Вы не можете удалять свои сообщения