Начать новую темуОтветить на тему  [ 1 сообщение ] 
Торрент файл
Размер: 3 GB • Зарегистрирован: 8 месяцев • Статус: * Не проверено
Скачан: 77 раз • Желающих скачать: 0 • Поблагодарили: 14 раз
 Раздают: 3  |  52 KB/s  ]   Качают: 0  |  0 KB/s  ] 
Сообщения
 Добавлено: 2016-03-31 12:06
RG-ELEKTRO
Аватара пользователя
Стаж: 2 года 3 месяца
Сообщений: 7928
Спасибок: 53786
Лайков: 3304
Пятьдесят оттенков черного / Fifty Shades of Black

Изображение

Изображение


Год выпуска: 2016
Страна: США
Жанр: комедия
Продолжительность: 01:28:02
Перевод: Профессиональный (дубляж) [iTunes]

Режиссёр: Майкл Тиддес
В ролях: Марлон Уайанс, Кали Хоук, Фред Уиллард, Майк Эппс, Эффион Крокетт, Джейн Сеймур, Флоренс Хендерсон, Эндрю Бэчелор, Дженни Зигрино, Кейт Лэнг Джонсон
Описание: Неискушенная студентка колледжа знакомится с состоятельным бизнесменом, чьи сексуальные предпочтения омрачают их отношения.

Изображение Изображение
Качество: WEB-DL 1080p
Формат: MKV
Видео кодек: MPEG-4 AVC
Аудио кодек: AC3
Видео: MPEG-4 AVC, 4391 kb/s, 1920x804
Аудио #1: AC3, 384 kb/s (6 ch) [Профессиональный (дубляж)]

"MI"
Format : Matroska
Format version : Version 2
File size : 3.00 GiB
Duration : 1h 28mn
Overall bit rate : 4 872 Kbps
Movie name : Fifty Shades of Black (2016) - Release for HDCLUB
Encoded date : UTC 2016-03-30 21:54:29
Writing application : mkvmerge v3.4.0 ('Rapunzel') built on May 15 2010 09:38:20
Writing library : libebml v0.8.0 + libmatroska v0.9.0

Video
ID : 1
Format : AVC
Format/Info : Advanced Video Codec
Format profile : High@L4
Format settings, CABAC : Yes
Format settings, ReFrames : 5 frames
Codec ID : V_MPEG4/ISO/AVC
Duration : 1h 28mn
Bit rate : 4 391 Kbps
Width : 1 920 pixels
Height : 804 pixels
Display aspect ratio : 2.40:1
Frame rate mode : Constant
Frame rate : 25.000 fps
Color space : YUV
Chroma subsampling : 4:2:0
Bit depth : 8 bits
Scan type : Progressive
Bits/(Pixel*Frame) : 0.114
Stream size : 2.70 GiB (90%)
Title : Fifty Shades of Black (2016) - Release for HDCLUB
Language : English
Default : Yes
Forced : No
Color range : Limited
Color primaries : BT.709
Transfer characteristics : BT.709
Matrix coefficients : BT.709

Audio
ID : 2
Format : AC-3
Format/Info : Audio Coding 3
Mode extension : CM (complete main)
Format settings, Endianness : Big
Codec ID : A_AC3
Duration : 1h 28mn
Bit rate mode : Constant
Bit rate : 384 Kbps
Channel(s) : 6 channels
Channel positions : Front: L C R, Side: L R, LFE
Sampling rate : 48.0 KHz
Bit depth : 16 bits
Compression mode : Lossy
Stream size : 242 MiB (8%)
Title : AC3 5.1 @ 384 kbps - DUB, iTunes
Language : Russian
Default : Yes
Forced : No

Menu
00:00:00.000 : en:1
00:02:33.320 : en:2
00:08:58.520 : en:3
00:14:53.200 : en:4
00:20:10.400 : en:5
00:25:35.520 : en:6
00:31:15.440 : en:7
00:36:06.960 : en:8
00:42:32.600 : en:9
00:47:08.920 : en:10
00:57:02.160 : en:11
01:01:58.200 : en:12
01:09:52.800 : en:13
01:16:55.680 : en:14
Свернуть

Скриншоты
Изображение
Изображение
Изображение
Свернуть
Изображение


Изображение Изображение
_________________
Не ищите меня в "ВКонтакте", в "Одноклассниках" меня нет - я на трекерах сижу!
Не в сети
Профиль  
Начать новую темуОтветить на тему  [ 1 сообщение ] 
Вы не можете начинать темы
Вы не можете отвечать на сообщения
Вы не можете редактировать свои сообщения
Вы не можете удалять свои сообщения