Начать новую темуОтветить на тему  [ Сообщений: 5 ] 
Торрент файл
Размер: 2.65 GB • Зарегистрирован: 8 месяцев • Статус: * Не проверено
Скачан: 147 раз • Желающих скачать: 0 • Поблагодарили: 19 раз
 Раздают: 3  |  0 KB/s  ]   Качают: 0  |  0 KB/s  ] 
Сообщения
 Добавлено: 2016-04-01 09:43
RG-ELEKTRO
Аватара пользователя
Стаж: 2 года 3 месяца
Сообщений: 7928
Спасибок: 53759
Лайков: 3304
Пятница

Изображение

Изображение


Год выпуска: 2016
Страна: Россия (RSS Production)
Жанр: комедия
Продолжительность: 01:26:54

Режиссёр: Евгений Шелякин
В ролях: Данила Козловский, Настасья Самбурская, Катерина Шпица, Павел Деревянко, Кирилл Плетнёв, Евгения Брик (Хиривская), Антон Шагин, Ян Цапник, Евгений Стычкин, Сергей Бурунов, Сергей Чирков, Аристарх Венес, Максим Емельянов, Никита Павленко, Михаил Полицеймако...
Описание: Что если азартный миллионер на одну ночь станет официантом, офисный лузер будет звездой самой яркой вечеринки, а двум «заклятым» друзьям придется искать кенгуру ночью в подмосковном лесу? У каждого своя пятница! Как она закончится для каждого, знает только утро субботы

Изображение
Качество: WEB-DL 720p
Формат: MKV
Видео кодек: MPEG-4 AVC
Аудио кодек: AC3
Видео: MPEG-4 AVC, 1280x534, 24 fps, 3886 Kbps
Аудио #1: AC3, 6 ch, 384 Кбит/с

"MI"
General
Unique ID : 186913642181858095794288855375999296539 (0x8C9E420F840ACFD99619C34E096E641B)
Complete name : K:PiatHica.2016.O.WEB-DL.720p.mkv
Format : Matroska
Format version : Version 4 / Version 2
File size : 2.65 GiB
Duration : 1h 26mn
Overall bit rate : 4 357 Kbps
Encoded date : UTC 2016-03-31 19:57:51
Writing application : mkvmerge v8.3.0 ('Over the Horizon') 64bit
Writing library : libebml v1.3.1 + libmatroska v1.4.2
DURATION : 01:26:54.848000000
NUMBER_OF_FRAMES : 162964
NUMBER_OF_BYTES : 250312704
_STATISTICS_WRITING_APP : mkvmerge v8.3.0 ('Over the Horizon') 64bit
_STATISTICS_WRITING_DATE_UTC : 2016-03-31 19:57:51
_STATISTICS_TAGS : BPS DURATION NUMBER_OF_FRAMES NUMBER_OF_BYTES

Video
ID : 1
Format : AVC
Format/Info : Advanced Video Codec
Format profile : Main@L3.1
Format settings, CABAC : No
Format settings, ReFrames : 2 frames
Codec ID : V_MPEG4/ISO/AVC
Duration : 1h 26mn
Bit rate : 3 886 Kbps
Width : 1 280 pixels
Height : 534 pixels
Display aspect ratio : 2.40:1
Frame rate : 24.000 fps
Color space : YUV
Chroma subsampling : 4:2:0
Bit depth : 8 bits
Scan type : Progressive
Bits/(Pixel*Frame) : 0.237
Stream size : 2.36 GiB (89%)
Language : English
Default : Yes
Forced : No
Color primaries : BT.709-5, BT.1361, IEC 61966-2-4, SMPTE RP177
Transfer characteristics : BT.709-5, BT.1361
Matrix coefficients : BT.709-5, BT.1361, IEC 61966-2-4 709, SMPTE RP177

Audio
ID : 2
Format : AC-3
Format/Info : Audio Coding 3
Mode extension : CM (complete main)
Codec ID : A_AC3
Duration : 1h 26mn
Bit rate mode : Constant
Bit rate : 384 Kbps
Channel(s) : 6 channels
Channel positions : Front: L C R, Side: L R, LFE
Sampling rate : 48.0 KHz
Bit depth : 16 bits
Compression mode : Lossy
Stream size : 239 MiB (9%)
Language : Russian
Default : Yes
Forced : No

Menu
00:00:00.000 : en:Глава 1
00:05:09.000 : en:Глава 2
00:10:17.541 : en:Глава 3
00:15:26.291 : en:Глава 4
00:21:16.832 : en:Глава 5
00:27:04.165 : en:Глава 6
00:32:19.956 : en:Глава 7
00:37:51.789 : en:Глава 8
00:43:00.122 : en:Глава 9
00:48:50.122 : en:Глава 10
00:54:06.622 : en:Глава 11
00:59:43.372 : en:Глава 12
01:05:15.580 : en:Глава 13
01:10:28.996 : en:Глава 14
01:16:43.079 : en:Глава 15
Свернуть

Скриншоты
Изображение
Изображение
Изображение
Свернуть
Изображение


Изображение Изображение
_________________
Не ищите меня в "ВКонтакте", в "Одноклассниках" меня нет - я на трекерах сижу!
 IDclub нравится это.
Не в сети
Профиль  
 Добавлено: 2016-04-01 12:19 (спустя 2 часа 36 минут)
Аватара пользователя
Стаж: 7 лет 11 месяцев
Сообщений: 995
Лайков: 74
оценка кинопоиска, явно завышена!
Не в сети
Профиль  
 Добавлено: 2016-04-02 08:31 (спустя 20 часов)
Аватара пользователя
Стаж: 3 года 4 месяца
Сообщений: 21
Лайков: 2

Evil_Knievel:

оценка кинопоиска, явно завышена!
П- проплачено :(
Не в сети
Профиль  
 Добавлено: 2016-04-02 22:59 (спустя 14 часов)
Стаж: 5 лет 2 месяца
Сообщений: 3
Лайков: 1
Да не нагнетайте! Отличный фильм! Смотрели с женой, всем очень понравилось, хотя уже отчаялись увидеть хороший русский фильм.
 Оля 88 нравится это.
Не в сети
Профиль  
 Добавлено: 2016-04-04 22:44 (спустя 1 день 23 часа)
Модератор
Аватара пользователя
Стаж: 9 лет
Возраст: 34
Сообщений: 2193
Спасибок: 6835
Лайков: 31
предыдущий фильм "Ч/Б" этого режиссера - был лучше. а "Пятница" - слабенько. 3/10
_________________
Не в сети
Профиль  
Начать новую темуОтветить на тему  [ Сообщений: 5 ] 
Вы не можете начинать темы
Вы не можете отвечать на сообщения
Вы не можете редактировать свои сообщения
Вы не можете удалять свои сообщения