Начать новую темуОтветить на тему  [ Сообщений: 3 ] 
Торрент файл
Размер: 11.3 GB • Зарегистрирован: 10 месяцев • Статус: * Не проверено
Скачан: 115 раз • Желающих скачать: 0 • Поблагодарили: 29 раз
 Раздают: 0  |  0 KB/s  ]   Качают: 0  |  0 KB/s  ] 
 Полного источника не было 2 часа 9 минут 
Сообщения
 Добавлено: 2016-01-19 21:00
DVD Release Group
Аватара пользователя
Стаж: 7 лет 1 месяц
Сообщений: 3544
Спасибок: 246765
Лайков: 1016
Шпионский мост

Bridge of Spies


Изображение


Год выпуска: 2015
Страна: США, Индия, Германия
Жанр: Триллер, драма, биография, история
Продолжительность: 02:21:19
Перевод: Профессиональный (полное дублирование) чистый звук
Режиссер: Стивен Спилберг
В ролях: Том Хэнкс, Билли Магнуссен, Алан Алда, Эми Райан, Марк Райлэнс, Доменик Ломбардоззи, Остин Стоуэлл, Ив Хьюсон, Майкл Гэстон, Себастьян Кох
Описание: Действие фильма происходит на фоне серии реальных исторических событий и рассказывает о бруклинском адвокате Джеймсе Доноване, который оказывается в эпицентре холодной войны, когда ЦРУ отправляет его на практически невозможное задание — договориться об освобождении захваченного в СССР американского пилота самолета-разведчика U2.
Изображение Изображение
Качество: BDRip 1080p
Формат: MKV
Видео кодек: H.264
Аудио кодек: AC3, DTS
Видео: 1920x800 23.98fps 9565kbps
Аудио:
Аудио Rus: AC3 48kHz 2ch 384Kbps
Аудио Eng: DTS 48kHz 6ch 1510Kbps
"MediaInfo"
Формат : Matroska
Версия формата : Version 4 / Version 2
Размер файла : 11,3 Гбайт
Продолжительность : 2 ч. 21 м.
Общий поток : 11,4 Мбит/сек
Дата кодирования : UTC 2016-01-19 14:10:50
Программа кодирования : mkvmerge v8.7.0 ('All of the above') 64bit
Библиотека кодирования : libebml v1.3.3 + libmatroska v1.4.4

Видео
Идентификатор : 1
Формат : AVC
Формат/Информация : Advanced Video Codec
Профиль формата : High@L4.1
Параметр CABAC формата : Да
Параметр ReFrames формата : 5 кадров
Идентификатор кодека : V_MPEG4/ISO/AVC
Продолжительность : 2 ч. 21 м.
Битрейт : 9565 Кбит/сек
Ширина : 1920 пикселей
Высота : 800 пикселей
Соотношение сторон : 2,40:1
Режим частоты кадров : Постоянный
Частота кадров : 23,976 кадра/сек
Цветовое пространство : YUV
Субдискретизация насыщенности : 4:2:0
Битовая глубина : 8 бит
Тип развёртки : Прогрессивная
Бит/(Пиксели*Кадры) : 0.260
Размер потока : 9,21 Гбайт (81%)
Библиотека кодирования : x264 core 148 r2638 7599210
Настройки программы : cabac=1 / ref=5 / deblock=1:0:0 / analyse=0x3:0x133 / me=umh / subme=7 / psy=1 / psy_rd=1.00:0.00 / mixed_ref=1 / me_range=16 / chroma_me=1 / trellis=1 / 8x8dct=1 / cqm=0 / deadzone=21,11 / fast_pskip=0 / chroma_qp_offset=-2 / threads=18 / lookahead_threads=3 / sliced_threads=0 / nr=0 / decimate=1 / interlaced=0 / bluray_compat=0 / constrained_intra=0 / bframes=3 / b_pyramid=2 / b_adapt=1 / b_bias=0 / direct=1 / weightb=1 / open_gop=0 / weightp=2 / keyint=250 / keyint_min=23 / scenecut=40 / intra_refresh=0 / rc_lookahead=40 / rc=2pass / mbtree=1 / bitrate=9565 / ratetol=1.0 / qcomp=0.60 / qpmin=0 / qpmax=69 / qpstep=4 / cplxblur=20.0 / qblur=0.5 / ip_ratio=1.40 / aq=1:1.00
Язык : English
Default : Да
Forced : Нет

Аудио #1
Идентификатор : 2
Формат : AC-3
Формат/Информация : Audio Coding 3
Расширение режима : CM (complete main)
Параметр Endianness формата : Big
Идентификатор кодека : A_AC3
Продолжительность : 2 ч. 21 м.
Вид битрейта : Постоянный
Битрейт : 384 Кбит/сек
Каналы : 2 канала
Расположение каналов : Front: L R
Частота : 48,0 КГц
Битовая глубина : 16 бит
Метод сжатия : С потерями
Размер потока : 388 Мбайт (3%)
Язык : Russian
Default : Да
Forced : Нет

Аудио #2
Идентификатор : 3
Формат : DTS
Формат/Информация : Digital Theater Systems
Профиль формата : ES
Режим : 16
Параметр Endianness формата : Big
Идентификатор кодека : A_DTS
Продолжительность : 2 ч. 21 м.
Вид битрейта : Постоянный
Битрейт : 1509 Кбит/сек
Каналы : 6 каналов
Расположение каналов : Front: L C R, Side: L R, LFE
Частота : 48,0 КГц
Битовая глубина : 24 бит
Метод сжатия : С потерями
Размер потока : 1,49 Гбайт (13%)
Язык : English
Default : Нет
Forced : Нет

Текст
Идентификатор : 4
Формат : UTF-8
Идентификатор кодека : S_TEXT/UTF8
Идентификатор кодека/Информация : UTF-8 Plain Text
Язык : Russian
Default : Да
Forced : Да

Меню
00:00:00.000 : en:00:00:00.000
00:10:29.462 : en:00:10:29.462
00:17:46.482 : en:00:17:46.482
00:22:09.828 : en:00:22:09.828
00:25:27.901 : en:00:25:27.901
00:31:18.210 : en:00:31:18.210
00:37:45.722 : en:00:37:45.722
00:45:29.268 : en:00:45:29.268
00:52:36.695 : en:00:52:36.695
01:00:39.427 : en:01:00:39.427
01:07:17.867 : en:01:07:17.867
01:16:52.399 : en:01:16:52.399
01:33:55.672 : en:01:33:55.672
01:45:41.752 : en:01:45:41.752
01:56:31.193 : en:01:56:31.193
02:07:20.550 : en:02:07:20.550
02:14:18.801 : en:02:14:18.801
Свернуть

"Скриншоты"
Изображение
Изображение
Изображение
Изображение
Свернуть


Последний раз редактировалось rastor 2016-01-31 04:00, всего редактировалось 1 раз.
Не в сети
Профиль  
 Добавлено: 2016-01-30 20:34 (спустя 10 дней)
Аватара пользователя
Стаж: 8 лет 11 месяцев
Сообщений: 14
Спасибок: 92
Сделать семпл, где нет ни одного слова это просто ГЕНИАЛЬНО.
Не в сети
Профиль  
 Добавлено: 2016-01-31 20:58 (спустя 1 день)
Аватара пользователя
Стаж: 8 лет 1 месяц
Сообщений: 346
Спасибок: 85
Лайков: 7
Скучноват фильм.. не понятно откуда такой большой рейтинг у него, если честно)

И походу фильма реклама стороннего сайта несколько раз идёт, модераторы просмотрели.
_________________
Будь проще, и жить будет легче!
Не в сети
Профиль  
Начать новую темуОтветить на тему  [ Сообщений: 3 ] 
Вы не можете начинать темы
Вы не можете отвечать на сообщения
Вы не можете редактировать свои сообщения
Вы не можете удалять свои сообщения