Начать новую темуОтветить на тему  [ 1 сообщение ] 
Торрент файл
Размер: 7.75 GB • Зарегистрирован: 10 месяцев • Статус: * Не проверено
Скачан: 50 раз • Желающих скачать: 0 • Поблагодарили: 13 раз
 Раздают: 1  |  112 KB/s  ]   Качают: 0  |  0 KB/s  ] 
Сообщения
 Добавлено: 2015-12-11 21:22
RG-ELEKTRO
Аватара пользователя
Стаж: 2 года 3 месяца
Сообщений: 7928
Спасибок: 53732
Лайков: 3304
Скорость: Автобус 657 / Heist

Изображение

Изображение


Год выпуска: 2015
Страна: США (Emmett/Furla Films, Mass Hysteria Entertainment, Randall Emmett / George Furla Productions, Silver Plane Pictures, Tri Vision Pictures)
Жанр: боевик, триллер, криминал
Продолжительность: 01:32:19
Перевод: Профессиональный (дубляж) [Лицензия] + Оригинальная звуковая дорожка
Субтитры: Английские

Режиссёр: Скотт Манн
В ролях: Джеффри Дин Морган, Роберт Де Ниро, Кейт Босворт, Дэйв Батиста, Джина Карано, Марк-Пол Госселаар, Моррис Честнат, Д.Б. Суини, Саммер Элтис, Лидия Халл
Описание: Все знают, что обокрасть Фрэнка Поупа, владельца казино и босса мафии — это самоубийство. Но однажды некогда преданный ему крупье решается вынести из кассы казино несколько миллионов долларов. Все было продумано, но план не сработал. Скрываясь с места преступления, грабители захватывают автобус, полный заложников. На бешеной скорости автобус мчится к мексиканской границе. Топливо на пределе. На хвосте — мафия и полиция. И, кажется, выхода нет…

Изображение Изображение
Качество: BDRip 1080p
Формат: MKV
Видео кодек: MPEG-4 AVC
Аудио кодек: AC3
Видео: MPEG-4 AVC, 1920x800, 10750 Kbps, 23.976fps
Аудио #1: AC3, 6 ch, 640 kbps [Профессиональный (дубляж)]
Аудио #2: AC3, 6 ch, 640 kbps (Eng) [Оригинальная звуковая дорожка]
Субтитры: Английские

"MI"
x264 [info]: frame I:1036 Avg QP:13.93 size:209103
x264 [info]: frame P:33058 Avg QP:16.34 size: 94162
x264 [info]: frame B:98709 Avg QP:18.13 size: 41632
x264 [info]: consecutive B-frames: 5.1% 6.1% 12.7% 11.7% 12.7% 28.8% 11.1% 9.7% 2.2%

Общее
Уникальный идентификатор : 198539006392922770926384385444093758535 (0x955D38C4E07755CFB12EDC8A0F020C47)
Полное имя : D:FilmHeist.2015.BDRip.1080p.mkv
Формат : Matroska
Версия формата : Version 2
Размер файла : 7,75 Гбайт
Продолжительность : 1 ч. 32 м.
Общий поток : 12,0 Мбит/сек
Название фильма : -=WALLEDOL=-
Дата кодирования : UTC 2016-01-27 19:42:31
Программа кодирования : mkvmerge v4.0.0 ('The Stars were mine') сборка от Jun 6 2010 16:18:42
Библиотека кодирования : libebml v1.0.0 + libmatroska v1.0.0

Видео
Идентификатор : 1
Формат : AVC
Формат/Информация : Advanced Video Codec
Профиль формата : High@L4.1
Параметр CABAC формата : Да
Параметр ReFrames формата : 5 кадров
Идентификатор кодека : V_MPEG4/ISO/AVC
Продолжительность : 1 ч. 32 м.
Битрейт : 10,8 Мбит/сек
Ширина : 1920 пикселей
Высота : 800 пикселей
Соотношение сторон : 2,40:1
Режим частоты кадров : Постоянный
Частота кадров : 23,976 (23976/1000) кадра/сек
Цветовое пространство : YUV
Субдискретизация насыщенности : 4:2:0
Битовая глубина : 8 бит
Тип развёртки : Прогрессивная
Бит/(Пиксели*Кадры) : 0.292
Размер потока : 6,78 Гбайт (87%)
Заголовок : Heist.2015.BDRip.1080p
Библиотека кодирования : x264 core 148 r2638 7599210
Настройки программы : cabac=1 / ref=5 / deblock=1:-3:-3 / analyse=0x3:0x133 / me=umh / subme=10 / psy=1 / psy_rd=1.00:0.09 / mixed_ref=1 / me_range=32 / chroma_me=1 / trellis=2 / 8x8dct=1 / cqm=0 / deadzone=21,11 / fast_pskip=0 / chroma_qp_offset=-3 / threads=6 / lookahead_threads=1 / sliced_threads=0 / nr=0 / decimate=1 / interlaced=0 / bluray_compat=0 / constrained_intra=0 / bframes=8 / b_pyramid=2 / b_adapt=2 / b_bias=0 / direct=3 / weightb=1 / open_gop=0 / weightp=2 / keyint=240 / keyint_min=23 / scenecut=40 / intra_refresh=0 / rc=2pass / mbtree=0 / bitrate=10750 / ratetol=1.0 / qcomp=0.60 / qpmin=0 / qpmax=69 / qpstep=4 / cplxblur=20.0 / qblur=0.5 / ip_ratio=1.40 / pb_ratio=1.30 / aq=1:1.00
Язык : English
Default : Нет
Forced : Нет

Аудио #1
Идентификатор : 2
Формат : AC-3
Формат/Информация : Audio Coding 3
Расширение режима : CM (complete main)
Параметр Endianness формата : Big
Идентификатор кодека : A_AC3
Продолжительность : 1 ч. 32 м.
Вид битрейта : Постоянный
Битрейт : 640 Кбит/сек
Каналы : 6 каналов
Расположение каналов : Front: L C R, Side: L R, LFE
Частота : 48,0 КГц
Частота кадров : 31,250 кадров/сек (1536 spf)
Метод сжатия : С потерями
Размер потока : 423 Мбайт (5%)
Заголовок : DUB
Язык : Russian
Default : Да
Forced : Да

Аудио #2
Идентификатор : 3
Формат : AC-3
Формат/Информация : Audio Coding 3
Расширение режима : CM (complete main)
Параметр Endianness формата : Big
Идентификатор кодека : A_AC3
Продолжительность : 1 ч. 32 м.
Вид битрейта : Постоянный
Битрейт : 640 Кбит/сек
Каналы : 6 каналов
Расположение каналов : Front: L C R, Side: L R, LFE
Частота : 48,0 КГц
Частота кадров : 31,250 кадров/сек (1536 spf)
Метод сжатия : С потерями
Размер потока : 423 Мбайт (5%)
Язык : English
Default : Нет
Forced : Нет

Текст
Идентификатор : 4
Формат : UTF-8
Идентификатор кодека : S_TEXT/UTF8
Идентификатор кодека/Информация : UTF-8 Plain Text
Язык : English
Default : Нет
Forced : Нет

Меню
00:00:00.000 : en:Chapter 1
00:06:23.841 : en:Chapter 2
00:11:36.654 : en:Chapter 3
00:18:00.412 : en:Chapter 4
00:27:25.769 : en:Chapter 5
00:34:27.065 : en:Chapter 6
00:44:30.209 : en:Chapter 7
00:54:44.030 : en:Chapter 8
01:03:00.443 : en:Chapter 9
01:09:18.154 : en:Chapter 10
01:18:53.145 : en:Chapter 11
01:26:54.334 : en:Chapter 12
01:32:18.449 : en:Chapter 13
Свернуть

Скриншоты
Изображение
Изображение
Изображение
Свернуть
Изображение


Изображение Изображение
Не в сети
Профиль  
Начать новую темуОтветить на тему  [ 1 сообщение ] 
Вы не можете начинать темы
Вы не можете отвечать на сообщения
Вы не можете редактировать свои сообщения
Вы не можете удалять свои сообщения