Начать новую темуОтветить на тему  [ Сообщений: 3 ] 
Торрент файл
Размер: 3.52 GB • Зарегистрирован: 6 месяцев • Статус: * Не проверено
Скачан: 29 раз • Желающих скачать: 0 • Поблагодарили: 8 раз
 Раздают: 0  |  0 KB/s  ]   Качают: 0  |  0 KB/s  ] 
 Полного источника не было 2 дня 13 часов 
Сообщения
 Добавлено: 2016-05-18 18:15
RG-ELEKTRO
Аватара пользователя
Стаж: 2 года 3 месяца
Сообщений: 7928
Спасибок: 53743
Лайков: 3304
Снайпер: Последний выстрел

Изображение

Изображение


Год выпуска: 2015
Страна: Россия (ООО "Нью Арт Синема Продакшн")
Жанр: Военный, драма, приключения
Продолжительность: 01:20:40
Перевод: Не требуется

Режиссёр: Арман Геворгян
В ролях: Гоша Куценко, Денис Бургазлиев, Анна Снаткина, Владимир Гостюхин, Борис Романов, Дирк Мартенс, Юлия Кадушкевич, Георгий Сивохин, Сергей Широчин, Олег Вебер
Описание: Тяжелый 1941-й год. Немецкие войска продолжают наступление, сжигая целые города и села, оставляя после себя руины и пепелища. Кажется, уже ничто не спасет Советский Союз от поражения, а Красную Армию - от тотального уничтожения оккупантами. В эпицентре этих трагических событий оказываются идейные враги - красноармеец, снайпер Николай Волохов и сын белого офицера Андре Ренье. В других обстоятельствах они могли бы оказаться по разные стороны баррикад - ведь отца Волохова убил белогвардейский офицер. Но сейчас им нечего делить. У них один враг - немцы...

Изображение Изображение
Качество: HDTV 1080i
Формат: MPEG-TS
Видео кодек: MPEG-4 AVC
Аудио кодек: AC3
Видео: MPEG-4 AVC, 1920х1080 (16:9), 25 fps, High@L4.0, 5881 kbps avg, 0.106 bit/pixel
Аудио #1: 48 kHz, AC3, 6 ch, 448 kbps avg


"MI"
General
ID : 1 (0x1)
Complete name : C:\Users\D899~1\AppData\Local\Temp\Snajper.Geroj.soprotivlenija.2015.HDTV._1080i_.Nikolspup__02_.ts
Format : MPEG-TS
File size : 49.4 MiB
Duration : 1mn 2s
Overall bit rate mode : Variable
Overall bit rate : 6 663 Kbps

Video
ID : 68 (0x44)
Menu ID : 1 (0x1)
Format : AVC
Format/Info : Advanced Video Codec
Format profile : Main@L4
Format settings, CABAC : Yes
Format settings, ReFrames : 3 frames
Codec ID : 27
Duration : 1mn 1s
Bit rate : 5 881 Kbps
Width : 1 920 pixels
Height : 1 080 pixels
Display aspect ratio : 16:9
Frame rate : 25.000 fps
Standard : Component
Color space : YUV
Chroma subsampling : 4:2:0
Bit depth : 8 bits
Scan type : Interlaced
Scan type, store method : Separated fields
Scan order : Top Field First
Bits/(Pixel*Frame) : 0.113
Stream size : 43.3 MiB (88%)
Color range : Limited
Color primaries : BT.709
Transfer characteristics : BT.709
Matrix coefficients : BT.709

Audio
ID : 69 (0x45)
Menu ID : 1 (0x1)
Format : AC-3
Format/Info : Audio Coding 3
Mode extension : CM (complete main)
Format settings, Endianness : Big
Codec ID : 129
Duration : 1mn 1s
Bit rate mode : Constant
Bit rate : 448 Kbps
Channel(s) : 6 channels
Channel positions : Front: L C R, Side: L R, LFE
Sampling rate : 48.0 KHz
Frame rate : 31.250 fps (1536 spf)
Compression mode : Lossy
Delay relative to video : -120ms
Stream size : 3.31 MiB (7%)
Language : Russian



Свернуть

Скриншоты
Изображение
Изображение
Изображение
Изображение
Свернуть
Изображение


Изображение Изображение
_________________
Не ищите меня в "ВКонтакте", в "Одноклассниках" меня нет - я на трекерах сижу!
Не в сети
Профиль  
 Добавлено: 2016-05-18 21:16 (спустя 3 часа)
Стаж: 7 лет 5 месяцев
Сообщений: 13
Лайков: 6
А по Дом Кино вот так назывался "Снайпер: Герой сопротивления"
Не в сети
Профиль  
 Добавлено: 2016-05-19 18:13 (спустя 20 часов)
Аватара пользователя
Стаж: 8 лет 7 месяцев
Сообщений: 1702
Спасибок: 104
Лайков: 152
а я скачаю... нравятся наши воины времен ВОВ, деды наши, как они боролись!!!не каждый сейчас так сможет
 Оля 88 нравится это.
Не в сети
Профиль  
Начать новую темуОтветить на тему  [ Сообщений: 3 ] 
Вы не можете начинать темы
Вы не можете отвечать на сообщения
Вы не можете редактировать свои сообщения
Вы не можете удалять свои сообщения