Начать новую темуОтветить на тему  [ 1 сообщение ] 
Торрент файл
Размер: 3.61 GB • Зарегистрирован: 10 месяцев • Статус: * Не проверено
Скачан: 78 раз • Желающих скачать: 0 • Поблагодарили: 13 раз
 Раздают: 1  |  0 KB/s  ]   Качают: 0  |  0 KB/s  ] 
Сообщения
 Добавлено: 2016-01-31 03:45
DVD Release Group
Аватара пользователя
Стаж: 7 лет 1 месяц
Сообщений: 3569
Спасибок: 247797
Лайков: 1020
Срочно выйду замуж


Изображение


Год выпуска: 2015
Страна: Россия
Жанр: Комедия, мелодрама
Продолжительность: 01:43:33
Перевод: Не требуется
Режиссер: Сергей Чекалов
В ролях: Юлия Ковальчук, Алексей Чумаков, Екатерина Маликова, Сергей Бурунов, Ольга Прокофьева, Вячеслав Гришечкин, Нонна Гришаева, Анатолий Белый, Алика Смехова, Эвклид Кюрдзидис
Описание: Евгения полностью погружена в работе редактора. Единственное что у неё есть в жизни - это её работа. Оказывается акционеры хотят назначить нового главного редактора, но у них есть главное требование, редактор обязательно должен состоять в браке. У Евгении все шансы заполучить эту должность, только за 10 дней ей необходимо найти себе мужа. Тут появляется беззаботный фотограф Стас, который предлагает свою помощь девушки в поисках достойного кандидата...
Изображение
Sample:
http://sendfile.su/1199202
Качество: WEB-DL 1080p
Формат: MKV
Видео кодек: H.264
Аудио кодек: AC3
Видео: 1912x800 25fps 4512kbps
Аудио: 48kHz 6ch 384kbps
"MediaInfo"
Формат : Matroska
Версия формата : Version 4 / Version 2
Размер файла : 3,61 Гбайт
Продолжительность : 1 ч. 43 м.
Общий поток : 4995 Кбит/сек
Дата кодирования : UTC 2016-01-30 19:14:09
Программа кодирования : mkvmerge v8.3.0 ('Over the Horizon') 64bit
Библиотека кодирования : libebml v1.3.1 + libmatroska v1.4.2
DURATION : 01:43:33.440000000
NUMBER_OF_FRAMES : 194170
NUMBER_OF_BYTES : 298245120
_STATISTICS_WRITING_APP : mkvmerge v8.3.0 ('Over the Horizon') 64bit
_STATISTICS_WRITING_DATE_UTC : 2016-01-30 19:14:09
_STATISTICS_TAGS : BPS DURATION NUMBER_OF_FRAMES NUMBER_OF_BYTES

Видео
Идентификатор : 1
Формат : AVC
Формат/Информация : Advanced Video Codec
Профиль формата : High@L4.0
Параметр CABAC формата : Да
Параметр ReFrames формата : 5 кадров
Идентификатор кодека : V_MPEG4/ISO/AVC
Продолжительность : 1 ч. 43 м.
Битрейт : 4512 Кбит/сек
Ширина : 1912 пикселей
Высота : 800 пикселей
Соотношение сторон : 2,40:1
Режим частоты кадров : Постоянный
Частота кадров : 25,000 кадров/сек
Цветовое пространство : YUV
Субдискретизация насыщенности : 4:2:0
Битовая глубина : 8 бит
Тип развёртки : Прогрессивная
Бит/(Пиксели*Кадры) : 0.118
Размер потока : 3,26 Гбайт (90%)
Язык : English
Default : Да
Forced : Нет
Основные цвета : BT.709
Характеристики трансфера : BT.709
Коэффициенты матрицы : BT.709

Аудио
Идентификатор : 2
Формат : AC-3
Формат/Информация : Audio Coding 3
Расширение режима : CM (complete main)
Параметр Endianness формата : Big
Идентификатор кодека : A_AC3
Продолжительность : 1 ч. 43 м.
Вид битрейта : Постоянный
Битрейт : 384 Кбит/сек
Каналы : 6 каналов
Расположение каналов : Front: L C R, Side: L R, LFE
Частота : 48,0 КГц
Битовая глубина : 16 бит
Метод сжатия : С потерями
Размер потока : 284 Мбайт (8%)
Язык : Russian
Default : Да
Forced : Нет

Меню
00:00:00.000 : en:1
00:09:00.000 : en:2
00:18:28.000 : en:3
00:28:34.000 : en:4
00:37:27.000 : en:5
00:46:09.000 : en:6
00:56:35.000 : en:7
01:05:17.000 : en:8
01:13:46.000 : en:9
01:21:27.000 : en:10
01:29:53.000 : en:11
01:38:22.000 : en:12
Свернуть

"Скриншоты"
Изображение
Изображение
Изображение
Свернуть
Не в сети
Профиль  
Начать новую темуОтветить на тему  [ 1 сообщение ] 
Вы не можете начинать темы
Вы не можете отвечать на сообщения
Вы не можете редактировать свои сообщения
Вы не можете удалять свои сообщения