Начать новую темуОтветить на тему  [ Сообщений: 3 ] 
Торрент файл
Размер: 3.25 GB • Зарегистрирован: 7 месяцев • Статус: * Не проверено
Скачан: 259 раз • Желающих скачать: 0 • Поблагодарили: 51 раз
 Раздают: 2  |  0 KB/s  ]   Качают: 0  |  0 KB/s  ] 
Сообщения
 Добавлено: 2016-04-21 07:14
RG-ELEKTRO
Аватара пользователя
Стаж: 2 года 3 месяца
Сообщений: 7928
Спасибок: 53784
Лайков: 3304
СуперБобровы

Изображение


Год выпуска: 2015
Страна: Россия
Жанр: комедия, семейный
Продолжительность: 01:35:12

Режиссёр: Дмитрий Дьяченко
В ролях: Павел Деревянко, Оксана Акиньшина, Роман Мадянов, Ирина Пегова, Владимир Толоконников, Даниил Вахрушев, Софья Мицкевич, Михаил Шамигулов, Елизавета Кононова, Виталий Кищенко
Описание: Вместо десерта на ужин семейство Бобровых получило… метеорит. Настоящий, большой, из космоса. Благодаря ему Бобровы вдруг приобретают немыслимые сверхспособности. Дед становится бессмертным, а отец теперь может телепортироваться. Сын начинает понимать собачий язык, а его сёстры получают суперсилу, возможность летать и быть невидимой. Единственное ограничение — способности действуют только когда вся семейка в сборе. Короче, у заурядной, среднестатистической ячейки общества появляется шанс превратиться в отряд настоящих супергероев. Вот только вместо того, чтобы спасать мир, они решают ограбить ближайший банк…

Изображение Изображение
Качество: WEB-DL 1080p
Формат: MKV
Видео кодек: MPEG-4 AVC
Аудио кодек: AC3
Видео: MPEG-4 AVC, 1920x804, 4406 kbps
Аудио #1: AC3, 6 ch, 384 kbps

"MI"
Общее
Уникальный идентификатор : 187629245307527798835100757872548447552 (0x8D281404C9A7235BAF00C9312A7F0540)
Полное имя : D:\фильмы\SuperBobrOv1.2O16.O.WEB-DL.1O8Op.mkv
Формат : Matroska
Версия формата : Version 4 / Version 2
Размер файла : 3,25 Гбайт
Продолжительность : 1 ч. 35 м.
Общий поток : 4872 Кбит/сек
Дата кодирования : UTC 2016-04-20 23:40:47
Программа кодирования : mkvmerge v8.3.0 ('Over the Horizon') 64bit
Библиотека кодирования : libebml v1.3.1 + libmatroska v1.4.2

Видео #1
Идентификатор : 1
Формат : AVC
Формат/Информация : Advanced Video Codec
Профиль формата : High@L4
Параметр CABAC формата : Да
Параметр ReFrames формата : 5 кадров
Идентификатор кодека : V_MPEG4/ISO/AVC
Продолжительность : 1 ч. 35 м.
Битрейт : 4494 Кбит/сек
Ширина : 1920 пикселей
Высота : 804 пикселя
Соотношение сторон : 2,40:1
Режим частоты кадров : Постоянный
Частота кадров : 24,000 кадра/сек
Цветовое пространство : YUV
Субдискретизация насыщенности : 4:2:0
Битовая глубина : 8 бит
Тип развёртки : Прогрессивная
Бит/(Пиксели*Кадры) : 0.121
Размер потока : 2,99 Гбайт (92%)
Язык : English
Default : Да
Forced : Нет
Цветовой диапазон : Limited
Основные цвета : BT.709
Характеристики трансфера : BT.709
Коэффициенты матрицы : BT.709

Видео #2
Идентификатор : 2
Формат : V_QUICKTIME
Идентификатор кодека : V_QUICKTIME
Продолжительность : 1 ч. 35 м.
Битрейт : 4734 бит/сек
Ширина : 640 пикселей
Высота : 268 пикселей
Соотношение сторон : 2,40:1
Режим частоты кадров : Постоянный
Частота кадров : 0,003 кадр/сек
Бит/(Пиксели*Кадры) : 9.200
Размер потока : 3,23 Мбайт (0%)
Default : Нет
Forced : Нет

Аудио
Идентификатор : 3
Формат : AC-3
Формат/Информация : Audio Coding 3
Расширение режима : CM (complete main)
Параметр Endianness формата : Big
Идентификатор кодека : A_AC3
Продолжительность : 1 ч. 35 м.
Вид битрейта : Постоянный
Битрейт : 384 Кбит/сек
Каналы : 6 каналов
Расположение каналов : Front: L C R, Side: L R, LFE
Частота : 48,0 КГц
Частота кадров : 31,250 кадров/сек (1536 spf)
Метод сжатия : С потерями
Размер потока : 261 Мбайт (8%)
Язык : Russian
Default : Да
Forced : Нет

Меню
00:00:00.000 : en:Глава 1
00:05:48.000 : en:Глава 2
00:11:31.541 : en:Глава 3
00:17:33.541 : en:Глава 4
00:23:10.749 : en:Глава 5
00:28:51.874 : en:Глава 6
00:34:25.707 : en:Глава 7
00:41:08.665 : en:Глава 8
00:47:43.540 : en:Глава 9
00:53:00.456 : en:Глава 10
00:58:34.622 : en:Глава 11
01:03:53.705 : en:Глава 12
01:09:34.580 : en:Глава 13
01:16:31.871 : en:Глава 14
01:22:49.287 : en:Глава 15
01:29:28.162 : en:Глава 16

Свернуть

Скриншоты
Изображение
Изображение
Изображение
Изображение
Свернуть
Изображение


Изображение Изображение
_________________
Не ищите меня в "ВКонтакте", в "Одноклассниках" меня нет - я на трекерах сижу!
Не в сети
Профиль  
 Добавлено: 2016-04-25 19:13 (спустя 4 дня)
Аватара пользователя
Стаж: 9 лет 1 месяц
Возраст: 36
Сообщений: 195
Спасибок: 20
Лайков: 8
На встроенных тв плеерах не идет(((
Не в сети
Профиль  
 Добавлено: 2016-05-07 18:58 (спустя 11 дней)
Аватара пользователя
Стаж: 6 лет 10 месяцев
Сообщений: 23

kirpichnic:

На встроенных тв плеерах не идет(((
печалька,а как км? :-[
Не в сети
Профиль  
Начать новую темуОтветить на тему  [ Сообщений: 3 ] 
Вы не можете начинать темы
Вы не можете отвечать на сообщения
Вы не можете редактировать свои сообщения
Вы не можете удалять свои сообщения