Начать новую темуОтветить на тему  [ 1 сообщение ] 
Торрент файл
Размер: 3.57 GB • Зарегистрирован: 3 месяца 18 дней • Статус: T Временный релиз
Скачан: 2 раза • Желающих скачать: 0 • Поблагодарили: 1 раз
 Раздают: 0  |  0 KB/s  ]   Качают: 0  |  0 KB/s  ] 
 Полного источника не было 17 дней 
Сообщения
 Добавлено: 2017-06-01 12:41
Top-releaser
Аватара пользователя
Стаж: 3 года
Сообщений: 8219
Спасибок: 57090
Лайков: 3800
Связанные кровью 2. Парни из Эссекса: Новое поколение / Bonded by Blood 2


Изображение


Год выпуска: 2017
Страна: Великобритания (Evolution Pictures, Richwater Films)
Жанр: криминал
Продолжительность: 01:33:16
Перевод: Любительский (многоголосый, закадровый) | Синема УС

Режиссёр: Грег Холл
В ролях: Терри Стоун, Сэм Страйк, Дани Дайер, Мартин Делани, Джонни Пальмьеро, Кристофер Эллисон, Джош Майерс, Кирсти Дж. Кёртис
Описание: На смену печально известным «Парням из Эссекса», погибшим в результате нашумевшего убийства в Рейндж Ровере, приходит группа молодых и голодных до власти преступников. Они называют себя друзьями и вместе пролили много крови, но готовы предать друг друга при первой же возможности, если на кону окажутся их личные интересы...

Изображение Изображение Изображение

Качество: BDRip 720p
Формат: МКV
Видео кодек: MPEG-4 AVC
Аудио кодек: AC3 (Dolby Digital)
Видео: 1280x536 (2.40:1), 23.976 fps, MPEG-4 AVC ~5 027 kbps avg
Аудио #1: 48 kHz, AC3 Dolby Digital, 2/0 (L,R) ch, ~448 kbps [Любительский (многоголосый, закадровый) | Синема УС]

"MI"
Общее
Уникальный идентификатор : 241919010870043575030219141208516906298 (0xB5FFE81E7B593477868D59444364CD3A)
Полное имя : D:\фильмы\Bonded.by.blood.2.2017.P.BDRip.72Op_KOSHARA.mkv
Формат : Matroska
Версия формата : Version 2
Размер файла : 3,57 Гбайт
Продолжительность : 1 ч. 33 м.
Режим общего битрейта : Переменный
Общий поток : 5477 Кбит/сек
Дата кодирования : UTC 2017-05-31 19:57:01
Программа кодирования : mkvmerge v8.3.0 ('Over the Horizon') 64bit
Библиотека кодирования : libebml v1.3.1 + libmatroska v1.4.2

Видео
Идентификатор : 1
Формат : AVC
Формат/Информация : Advanced Video Codec
Профиль формата : High@L4.1
Параметр CABAC формата : Да
Параметр ReFrames формата : 12 кадров
Идентификатор кодека : V_MPEG4/ISO/AVC
Продолжительность : 1 ч. 33 м.
Вид битрейта : Переменный
Битрейт : 5027 Кбит/сек
Максимальный битрейт : 5600 Кбит/сек
Ширина : 1280 пикселей
Высота : 536 пикселей
Соотношение сторон : 2,40:1
Режим частоты кадров : Постоянный
Частота кадров : 23,976 (24000/1001) кадра/сек
Стандарт вещания : Component
Цветовое пространство : YUV
Субдискретизация насыщенности : 4:2:0
Битовая глубина : 8 бит
Тип развёртки : Прогрессивная
Бит/(Пиксели*Кадры) : 0.306
Размер потока : 3,27 Гбайт (92%)
Default : Да
Forced : Нет
Цветовой диапазон : Limited
Основные цвета : BT.709
Характеристики трансфера : BT.709
Коэффициенты матрицы : BT.709

Аудио
Идентификатор : 2
Формат : AC-3
Формат/Информация : Audio Coding 3
Расширение режима : CM (complete main)
Параметр Endianness формата : Big
Идентификатор кодека : A_AC3
Продолжительность : 1 ч. 33 м.
Вид битрейта : Постоянный
Битрейт : 448 Кбит/сек
Каналы : 2 канала
Расположение каналов : Front: L R
Частота : 48,0 КГц
Частота кадров : 31,250 кадров/сек (1536 spf)
Метод сжатия : С потерями
Размер потока : 299 Мбайт (8%)
Default : Да
Forced : Нет

Свернуть

Скриншоты
Изображение
Изображение
Изображение
Свернуть
_________________
Не ищите меня в "ВКонтакте", в "Одноклассниках" меня нет - я на трекерах сижу!
Не в сети
Профиль  
Начать новую темуОтветить на тему  [ 1 сообщение ] 
Вы не можете начинать темы
Вы не можете отвечать на сообщения
Вы не можете редактировать свои сообщения
Вы не можете удалять свои сообщения