Начать новую темуОтветить на тему  [ 1 сообщение ] 
Торрент файл
Размер: 2.6 GB • Зарегистрирован: 7 месяцев • Статус: * Не проверено
Скачан: 41 раз • Желающих скачать: 0 • Поблагодарили: 12 раз
 Раздают: 1  |  0 KB/s  ]   Качают: 0  |  0 KB/s  ] 
Сообщения
 Добавлено: 2016-04-14 10:13
RG-ELEKTRO
Аватара пользователя
Стаж: 2 года 3 месяца
Сообщений: 7928
Спасибок: 53761
Лайков: 3304
Уроки выживания

Изображение

Изображение

Год выпуска: 2016
Страна: Россия
Жанр: комедия, семейный, приключения
Продолжительность: 01:22:45

Режиссёр: Андрей Томашевский
В ролях: Денис Никифоров, Илья Костюков, Екатерина Волкова, Александр Самойленко, Анастасия Черникова
Описание: Женя Аистов — брутальный красавец и лихой летчик. Он знает толк в жизни и женщинах, ценит свободу и… не любит детей. Когда-то он был командиром воздушного судна, а ныне управляет маленьким самолетом, доставляющим грузы на экзотический курорт. Однажды он терпит крушение на необитаемом острове. Но самое ужасное, что вместе с ним на острове оказывается 8-летний мальчишка, смешной и занудливый Коля. Так началась эта веселая «игра» на выживание…

Изображение
Качество: WEB-DL 720p
Формат: MKV
Видео кодек: MPEG-4 AVC
Аудио кодек: AC3
Видео: MPEG-4 AVC, 4033 kb/s, 1280@960x536
Аудио #1: AC3, 384 kb/s (6 ch)

"MI"
Format : Matroska
Format version : Version 4 / Version 2
File size : 2.60 GiB
Duration : 1h 22mn
Overall bit rate : 4 507 Kbps
Encoded date : UTC 2016-04-13 19:41:34
Writing application : mkvmerge v8.3.0 ('Over the Horizon') 64bit
Writing library : libebml v1.3.1 + libmatroska v1.4.2
DURATION : 01:22:44.896000000
NUMBER_OF_FRAMES : 155153
NUMBER_OF_BYTES : 238315008
_STATISTICS_WRITING_APP : mkvmerge v8.3.0 ('Over the Horizon') 64bit
_STATISTICS_WRITING_DATE_UTC : 2016-04-13 19:41:34
_STATISTICS_TAGS : BPS DURATION NUMBER_OF_FRAMES NUMBER_OF_BYTES

Video
ID : 1
Format : AVC
Format/Info : Advanced Video Codec
Format profile : Main@L3.1
Format settings, CABAC : No
Format settings, ReFrames : 2 frames
Codec ID : V_MPEG4/ISO/AVC
Duration : 1h 22mn
Bit rate : 4 033 Kbps
Width : 960 pixels
Height : 536 pixels
Display aspect ratio : 2.40:1
Frame rate mode : Constant
Frame rate : 25.000 fps
Color space : YUV
Chroma subsampling : 4:2:0
Bit depth : 8 bits
Scan type : Progressive
Bits/(Pixel*Frame) : 0.314
Stream size : 2.33 GiB (89%)
Language : English
Default : Yes
Forced : No
Color range : Limited
Color primaries : BT.709
Transfer characteristics : BT.709
Matrix coefficients : BT.709

Audio
ID : 2
Format : AC-3
Format/Info : Audio Coding 3
Mode extension : CM (complete main)
Format settings, Endianness : Big
Codec ID : A_AC3
Duration : 1h 22mn
Bit rate mode : Constant
Bit rate : 384 Kbps
Channel(s) : 6 channels
Channel positions : Front: L C R, Side: L R, LFE
Sampling rate : 48.0 KHz
Bit depth : 16 bits
Compression mode : Lossy
Stream size : 227 MiB (9%)
Language : Russian
Default : Yes
Forced : No

Menu
00:00:00.000 : en:Глава 1
00:05:17.320 : en:Глава 2
00:10:28.960 : en:Глава 3
00:14:56.440 : en:Глава 4
00:20:48.600 : en:Глава 5
00:28:57.480 : en:Глава 6
00:36:38.840 : en:Глава 7
00:42:15.360 : en:Глава 8
00:49:41.200 : en:Глава 9
00:55:19.360 : en:Глава 10
01:01:58.480 : en:Глава 11
01:08:56.680 : en:Глава 12
01:16:27.400 : en:Глава 13
Свернуть

Скриншоты
Изображение
Изображение
Изображение
Свернуть
Изображение


Изображение Изображение
_________________
Не ищите меня в "ВКонтакте", в "Одноклассниках" меня нет - я на трекерах сижу!
Не в сети
Профиль  
Начать новую темуОтветить на тему  [ 1 сообщение ] 
Вы не можете начинать темы
Вы не можете отвечать на сообщения
Вы не можете редактировать свои сообщения
Вы не можете удалять свои сообщения
cron