Начать новую темуОтветить на тему  [ 1 сообщение ] 
Торрент файл
Размер: 10.15 GB • Зарегистрирован: 9 месяцев • Статус: * Не проверено
Скачан: 115 раз • Желающих скачать: 0 • Поблагодарили: 21 раз
 Раздают: 2  |  0 KB/s  ]   Качают: 0  |  0 KB/s  ] 
Сообщения
 Добавлено: 2016-02-21 06:32
DVD Release Group
Аватара пользователя
Стаж: 7 лет 1 месяц
Сообщений: 3544
Спасибок: 246839
Лайков: 1017
В центре внимания

Spotlight


Изображение


Год выпуска: 2015
Страна: США
Жанр: Триллер, драма, биография, история
Продолжительность: 02:09:08
Перевод: Профессиональный (многоголосый)
Режиссер: Том МакКарти
В ролях: Марк Руффало, Майкл Китон, Рэйчел МакАдамс, Лив Шрайбер, Джон Слэттери, Стэнли Туччи, Брайан Д’Арси Джеймс, Елена Стайтелер, Джин Аморозо, Даг Мюррэй
Описание: В основу ленты легло журналистское расследование газеты The Boston Globe. Целая группа авторов копала под бостонскую митрополию и, в конце концов, отрыла педофильский скандал. Они сумели доказать, что некоторые священники Бостона приставали к детям, при этом кардинал и архиепископ городской церкви Бернард Лоу об этом знал и якобы покрывал их. После публикации скандал разгорался все сильнее и сильнее по принципу цепной реакции, и, в итоге, привел к отставке кардинала Лоу. Вдобавок, бостонская церковь выплатила миллионы компенсации и закрыла больше полусотни приходов.
Изображение Изображение
Sample:
http://sendfile.su/1206048
Качество: BDRip 1080p
Формат: MKV
Видео кодек: H.264
Аудио кодек: AC3, DTS
Видео: 1920x1040 23.98fps 9401kbps
Аудио:
Аудио Rus: AC3 48kHz 6ch 384Kbps
Аудио Eng: DTS 48kHz 6ch 1510Kbps
"MediaInfo"
Формат : Matroska
Версия формата : Version 2
Размер файла : 10,2 Гбайт
Продолжительность : 2 ч. 9 м.
Общий поток : 11,3 Мбит/сек
Дата кодирования : UTC 2016-02-20 19:31:11
Программа кодирования : mkvmerge v8.3.0 ('Over the Horizon') 64bit
Библиотека кодирования : libebml v1.3.1 + libmatroska v1.4.2
DURATION : 02:09:03.008000000
NUMBER_OF_FRAMES : 241969
NUMBER_OF_BYTES : 371664384
_STATISTICS_WRITING_APP : mkvmerge v8.3.0 ('Over the Horizon') 64bit
_STATISTICS_WRITING_DATE_UTC : 2016-02-20 19:31:11
_STATISTICS_TAGS : BPS DURATION NUMBER_OF_FRAMES NUMBER_OF_BYTES

Видео
Идентификатор : 1
Формат : AVC
Формат/Информация : Advanced Video Codec
Профиль формата : High@L4.1
Параметр CABAC формата : Да
Параметр ReFrames формата : 4 кадра
Идентификатор кодека : V_MPEG4/ISO/AVC
Продолжительность : 2 ч. 9 м.
Битрейт : 9401 Кбит/сек
Ширина : 1920 пикселей
Высота : 1040 пикселей
Соотношение сторон : 1,85:1
Режим частоты кадров : Постоянный
Частота кадров : 23,976 кадра/сек
Цветовое пространство : YUV
Субдискретизация насыщенности : 4:2:0
Битовая глубина : 8 бит
Тип развёртки : Прогрессивная
Бит/(Пиксели*Кадры) : 0.196
Размер потока : 8,24 Гбайт (81%)
Библиотека кодирования : x264 core 148 r2665 a01e339
Настройки программы : cabac=1 / ref=4 / deblock=1:0:0 / analyse=0x3:0x113 / me=umh / subme=8 / psy=1 / psy_rd=1.00:0.00 / mixed_ref=1 / me_range=16 / chroma_me=1 / trellis=1 / 8x8dct=1 / cqm=0 / deadzone=21,11 / fast_pskip=0 / chroma_qp_offset=-2 / threads=24 / lookahead_threads=4 / sliced_threads=0 / nr=0 / decimate=1 / interlaced=0 / bluray_compat=0 / constrained_intra=0 / bframes=3 / b_pyramid=2 / b_adapt=2 / b_bias=0 / direct=3 / weightb=1 / open_gop=0 / weightp=2 / keyint=250 / keyint_min=23 / scenecut=40 / intra_refresh=0 / rc_lookahead=50 / rc=2pass / mbtree=1 / bitrate=9401 / ratetol=1.0 / qcomp=0.60 / qpmin=0 / qpmax=69 / qpstep=4 / cplxblur=20.0 / qblur=0.5 / ip_ratio=1.40 / aq=1:1.00
Язык : English
Default : Да
Forced : Нет
DURATION : 02:09:08.157000000
NUMBER_OF_FRAMES : 185770
NUMBER_OF_BYTES : 9066017500
_STATISTICS_WRITING_APP : mkvmerge v8.3.0 ('Over the Horizon') 64bit
_STATISTICS_WRITING_DATE_UTC : 2016-02-20 19:31:11
_STATISTICS_TAGS : BPS DURATION NUMBER_OF_FRAMES NUMBER_OF_BYTES

Аудио #1
Идентификатор : 2
Формат : AC-3
Формат/Информация : Audio Coding 3
Расширение режима : CM (complete main)
Параметр Endianness формата : Big
Идентификатор кодека : A_AC3
Продолжительность : 2 ч. 9 м.
Вид битрейта : Постоянный
Битрейт : 384 Кбит/сек
Каналы : 6 каналов
Расположение каналов : Front: L C R, Side: L R, LFE
Частота : 48,0 КГц
Битовая глубина : 16 бит
Метод сжатия : С потерями
Размер потока : 355 Мбайт (3%)
Язык : Russian
Default : Да
Forced : Нет

Аудио #2
Идентификатор : 3
Формат : DTS
Формат/Информация : Digital Theater Systems
Режим : 16
Параметр Endianness формата : Big
Идентификатор кодека : A_DTS
Продолжительность : 2 ч. 9 м.
Вид битрейта : Постоянный
Битрейт : 1509 Кбит/сек
Каналы : 6 каналов
Расположение каналов : Front: L C R, Side: L R, LFE
Частота : 48,0 КГц
Битовая глубина : 24 бит
Метод сжатия : С потерями
Размер потока : 1,36 Гбайт (13%)
Язык : English
Default : Нет
Forced : Нет

Текст #1
Идентификатор : 4
Формат : UTF-8
Идентификатор кодека : S_TEXT/UTF8
Идентификатор кодека/Информация : UTF-8 Plain Text
Заголовок : English regular
Default : Нет
Forced : Нет

Текст #2
Идентификатор : 5
Формат : UTF-8
Идентификатор кодека : S_TEXT/UTF8
Идентификатор кодека/Информация : UTF-8 Plain Text
Заголовок : English sdh
Default : Нет
Forced : Нет

Меню
00:00:00.000 : en:00:00:00.000
00:08:20.750 : en:00:08:20.750
00:14:30.536 : en:00:14:30.536
00:21:51.519 : en:00:21:51.519
00:27:38.907 : en:00:27:38.907
00:35:48.772 : en:00:35:48.772
00:45:38.986 : en:00:45:38.986
00:49:12.199 : en:00:49:12.199
00:53:21.156 : en:00:53:21.156
00:59:36.573 : en:00:59:36.573
01:05:29.217 : en:01:05:29.217
01:10:47.535 : en:01:10:47.535
01:17:30.688 : en:01:17:30.688
01:23:30.047 : en:01:23:30.047
01:30:03.148 : en:01:30:03.148
01:34:27.495 : en:01:34:27.495
01:42:52.541 : en:01:42:52.541
01:50:57.943 : en:01:50:57.943
01:55:50.110 : en:01:55:50.110
02:01:30.575 : en:02:01:30.575
Свернуть

"Скриншоты"
Изображение
Изображение
Изображение
Свернуть

"Награды"
Оскар, 2016 год
Номинации (6):
- Лучший фильм
- Лучшая мужская роль второго плана (Марк Руффало)
- Лучшая женская роль второго плана (Рэйчел МакАдамс)
- Лучший режиссер (Том МакКарти)
- Лучший сценарий
- Лучший монтаж

Золотой глобус, 2016 год
Номинации (3):
- Лучший фильм (драма)
- Лучший режиссер (Том МакКарти)
- Лучший сценарий

Британская академия, 2016 год
Победитель (1):
- Лучший оригинальный сценарий
Номинации (2):
- Лучший фильм
- Лучшая мужская роль второго плана (Марк Руффало)

Премия Гильдии актеров, 2016 год
Победитель (1):
- Лучший актерский состав
Номинации (1):
- Лучшая женская роль второго плана (Рэйчел МакАдамс)

Венецианский кинофестиваль, 2015 год
Победитель (2):
- Премия имени Брайана из Назарета
- Серебряная мышь
Свернуть
Не в сети
Профиль  
Начать новую темуОтветить на тему  [ 1 сообщение ] 
Вы не можете начинать темы
Вы не можете отвечать на сообщения
Вы не можете редактировать свои сообщения
Вы не можете удалять свои сообщения