Начать новую темуОтветить на тему  [ 1 сообщение ] 
Торрент файл
Размер: 24.69 GB • Зарегистрирован: 9 месяцев • Статус: * Не проверено
Скачан: 44 раза • Желающих скачать: 0 • Поблагодарили: 12 раз
 Раздают: 0  |  0 KB/s  ]   Качают: 0  |  0 KB/s  ] 
 Полного источника не было 4 часа 
Сообщения
 Добавлено: 2016-03-03 11:57
RG-ELEKTRO
Аватара пользователя
Стаж: 2 года 3 месяца
Сообщений: 7928
Спасибок: 53801
Лайков: 3304
В сердце моря / In the Heart of the Sea

Изображение

Изображение


Год выпуска: 2015
Страна: США (Cott Productions, Enelmar Productions, Imagine Entertainment)
Жанр: Триллер, драма, приключения, биография, история
Продолжительность: 02:02:06
Перевод: Профессиональный (дубляж) [iTunes] + Оригинальная звуковая дорожка

Режиссёр: Рон Ховард
В ролях: Крис Хемсворт, Бенджамин Уокер, Киллиан Мёрфи, Брендан Глисон, Бен Уишоу, Мишель Фэйрли, Том Холланд, Пол Андерсон, Фрэнк Диллэйн, Джозеф Моул, Эдвард Эшли, Сэм Кили, Ози Икхайл, Гари Бидл, Джейми Сивес, Морган Четкути, Шарлотта Райли, Дональд Самптер, Ричард Бреммер, Хорди Молья
Описание: В 1819 году американский корабль «Эссекс» с командой из двух десятков человек на борту отправился из порта в штате Массачусетс на китобойный промысел. Осенью 1820-го успешная на протяжении полутора лет охота была прервана атакой гигантского кашалота на судно, в результате чего морякам пришлось пересесть в шлюпки. В течение трех с лишним месяцев они боролись за выживание посреди океана…

Изображение Изображение
Качество: BDRemux 1080p
Формат: MKV
Видео кодек: MPEG-4 AVC
Аудио кодек: AC3 / Dolby TrueHD
Видео: MPEG-4 AVC, 1920x1080p, (16:9), ~23.6 Mbps, 23,976 fps
Аудио #1: AC3, 384 kb/s (6 ch), 48 kHz [Профессиональный (дубляж)]
Аудио #2: Aнглийский (Dolby TrueHD, 8 ch, 4702 kbps) [Оригинальная звуковая дорожка]
Аудио #3: Украинский (AC3, 2 ch, 192 kbps)
Cубтитры: Rus, Eng, Ukr

"MI"
General
Unique ID : 191716576035122438560620238540758431205 (0x903B44FB7895AF3B8E974EBE2C69B5E5)
Complete name :In the Heart of the Sea BDRemux.D.2015.mkv
Format : Matroska
Format version : Version 2
File size : 24.7 GiB
Duration : 2h 1mn
Overall bit rate mode : Variable
Overall bit rate : 29.0 Mbps
Movie name : В сердце моря / In the Heart of the Sea (2015) в 3Д
Encoded date : UTC 2016-03-02 19:34:06
Writing application : mkvmerge v8.3.0 ('Over the Horizon') 64bit
Writing library : libebml v1.3.1 + libmatroska v1.4.2
DURATION : 02:00:24.843000000
NUMBER_OF_FRAMES : 2994
NUMBER_OF_BYTES : 9424838
_STATISTICS_WRITING_APP : mkvmerge v8.3.0 ('Over the Horizon') 64bit
_STATISTICS_WRITING_DATE_UTC : 2016-03-02 19:34:06
_STATISTICS_TAGS : BPS DURATION NUMBER_OF_FRAMES NUMBER_OF_BYTES

Video
ID : 1
Format : AVC
Format/Info : Advanced Video Codec
Format profile : High@L4.1
Format settings, CABAC : Yes
Format settings, ReFrames : 2 frames
Codec ID : V_MPEG4/ISO/AVC
Duration : 2h 1mn
Bit rate mode : Variable
Width : 1 920 pixels
Height : 1 080 pixels
Display aspect ratio : 16:9
Frame rate mode : Constant
Frame rate : 23.976 fps
Color space : YUV
Chroma subsampling : 4:2:0
Bit depth : 8 bits
Scan type : Progressive
Default : Yes
Forced : No

Audio #1
ID : 2
Format : AC-3
Format/Info : Audio Coding 3
Mode extension : CM (complete main)
Format settings, Endianness : Big
Codec ID : A_AC3
Duration : 2h 1mn
Bit rate mode : Constant
Bit rate : 384 Kbps
Channel(s) : 6 channels
Channel positions : Front: L C R, Side: L R, LFE
Sampling rate : 48.0 KHz
Bit depth : 16 bits
Compression mode : Lossy
Stream size : 334 MiB (1%)
Language : Russian
Default : Yes
Forced : No

Audio #2
ID : 3
Format : AC-3
Format/Info : Audio Coding 3
Mode extension : CM (complete main)
Format settings, Endianness : Big
Codec ID : A_AC3
Duration : 2h 1mn
Bit rate mode : Constant
Bit rate : 192 Kbps
Channel(s) : 2 channels
Channel positions : Front: L R
Sampling rate : 48.0 KHz
Bit depth : 16 bits
Compression mode : Lossy
Stream size : 167 MiB (1%)
Language : Ukrainian
Default : No
Forced : No

Audio #3
ID : 4
Format : TrueHD
Codec ID : A_TRUEHD
Duration : 2h 1mn
Bit rate mode : Variable
Maximum bit rate : 7 719 Kbps
Channel(s) : 8 channels
Channel positions : Front: L C R, Side: L R, Back: L R, LFE
Sampling rate : 48.0 KHz
Compression mode : Lossless
Language : English
Default : No
Forced : No

Text #1
ID : 5
Format : PGS
Muxing mode : zlib
Codec ID : S_HDMV/PGS
Codec ID/Info : Picture based subtitle format used on BDs/HD-DVDs
Language : Russian
Default : No
Forced : No

Text #2
ID : 6
Format : PGS
Muxing mode : zlib
Codec ID : S_HDMV/PGS
Codec ID/Info : Picture based subtitle format used on BDs/HD-DVDs
Language : Russian
Default : No
Forced : No

Text #3
ID : 7
Format : PGS
Muxing mode : zlib
Codec ID : S_HDMV/PGS
Codec ID/Info : Picture based subtitle format used on BDs/HD-DVDs
Language : Ukrainian
Default : No
Forced : No

Text #4
ID : 8
Format : PGS
Muxing mode : zlib
Codec ID : S_HDMV/PGS
Codec ID/Info : Picture based subtitle format used on BDs/HD-DVDs
Language : English
Default : No
Forced : No
Свернуть

Скриншоты
Изображение
Изображение
Изображение
Свернуть
Изображение


Изображение Изображение
_________________
Не ищите меня в "ВКонтакте", в "Одноклассниках" меня нет - я на трекерах сижу!
Не в сети
Профиль  
Начать новую темуОтветить на тему  [ 1 сообщение ] 
Вы не можете начинать темы
Вы не можете отвечать на сообщения
Вы не можете редактировать свои сообщения
Вы не можете удалять свои сообщения