Начать новую темуОтветить на тему  [ Сообщений: 6 ] 
Торрент файл
Размер: 14.91 GB • Зарегистрирован: 9 месяцев • Статус: * Не проверено
Скачан: 124 раза • Желающих скачать: 0 • Поблагодарили: 21 раз
 Раздают: 2  |  0 KB/s  ]   Качают: 0  |  0 KB/s  ] 
Сообщения
 Добавлено: 2016-02-24 13:04
RG-ELEKTRO
Аватара пользователя
Стаж: 2 года 3 месяца
Сообщений: 7928
Спасибок: 53783
Лайков: 3304
В сердце моря / In the Heart of the Sea

Изображение

Изображение


Год выпуска: 2015
Страна: США (Cott Productions, Enelmar Productions, Imagine Entertainment)
Жанр: Триллер, драма, приключения, биография, история
Продолжительность: 02:02:06
Перевод: Профессиональный (дубляж) [Чистый звук] + Оригинальная звуковая дорожка

Режиссёр: Рон Ховард
В ролях: Крис Хемсворт, Бенджамин Уокер, Киллиан Мёрфи, Брендан Глисон, Бен Уишоу, Мишель Фэйрли, Том Холланд, Пол Андерсон, Фрэнк Диллэйн, Джозеф Моул, Эдвард Эшли, Сэм Кили, Ози Икхайл, Гари Бидл, Джейми Сивес, Морган Четкути, Шарлотта Райли, Дональд Самптер, Ричард Бреммер, Хорди Молья
Описание: В 1819 году американский корабль «Эссекс» с командой из двух десятков человек на борту отправился из порта в штате Массачусетс на китобойный промысел. Осенью 1820-го успешная на протяжении полутора лет охота была прервана атакой гигантского кашалота на судно, в результате чего морякам пришлось пересесть в шлюпки. В течение трех с лишним месяцев они боролись за выживание посреди океана…

Изображение Изображение
Качество: BDRip 1080p
Формат: MKV
Видео кодек: MPEG-4 AVC
Аудио кодек: AC3
Видео: MPEG-4 AVC, 16.4 Мбит/с, 1920x1080, 23.976 кадр/с
Аудио #1: AC3, 2 ch, 192 Кбит/с [Профессиональный (дубляж)]
Аудио #2: английский (AC3, 6 ch, 640 Кбит/с) [Оригинальная звуковая дорожка]

"MI"
Общее
Уникальный идентификатор : 234408275077809628364396710319719294453 (0xB05964411B592DE9ACE3B33D8949A5F5)
Полное имя : In.the.Heart.of.the.Sea.2015.BDRip.1080p.mkv
Формат : Matroska
Версия формата : Version 2
Размер файла : 14,9 Гбайт
Продолжительность : 2 ч. 1 м.
Общий поток : 17,5 Мбит/сек
Название фильма : In The Heart Of The Sea (2015) - by lexxblack
Дата кодирования : UTC 2016-02-24 07:56:41
Программа кодирования : mkvmerge v8.3.0 ('Over the Horizon') 32bit
Библиотека кодирования : libebml v1.3.1 + libmatroska v1.4.2
Обложка : Yes
Attachments : cover.jpg

Видео
Идентификатор : 1
Формат : AVC
Формат/Информация : Advanced Video Codec
Профиль формата : High@L4.1
Параметр CABAC формата : Да
Параметр ReFrames формата : 4 кадра
Идентификатор кодека : V_MPEG4/ISO/AVC
Продолжительность : 2 ч. 1 м.
Битрейт : 16,4 Мбит/сек
Ширина : 1920 пикселей
Высота : 1080 пикселей
Соотношение сторон : 16:9
Режим частоты кадров : Постоянный
Частота кадров : 23,976 (24000/1001) кадра/сек
Цветовое пространство : YUV
Субдискретизация насыщенности : 4:2:0
Битовая глубина : 8 бит
Тип развёртки : Прогрессивная
Бит/(Пиксели*Кадры) : 0.329
Размер потока : 13,9 Гбайт (93%)
Заголовок : In The Heart Of The Sea (2015) - EPiC
Библиотека кодирования : x264 core 142 r2431+42 c69a006 tMod [8-bit@all X86_64]
Настройки программы : cabac=1 / ref=4 / deblock=1:-3:-3 / analyse=0x3:0x133 / me=umh / subme=11 / psy=1 / fade_compensate=0.00 / psy_rd=0.90:0.00 / mixed_ref=1 / me_range=32 / chroma_me=1 / trellis=2 / 8x8dct=1 / cqm=0 / deadzone=21,11 / fast_pskip=0 / chroma_qp_offset=-2 / threads=12 / lookahead_threads=2 / sliced_threads=0 / nr=0 / decimate=0 / interlaced=0 / bluray_compat=0 / constrained_intra=0 / fgo=0 / bframes=8 / b_pyramid=2 / b_adapt=2 / b_bias=0 / direct=3 / weightb=1 / open_gop=0 / weightp=2 / keyint=240 / keyint_min=23 / scenecut=40 / intra_refresh=0 / rc_lookahead=60 / rc=crf / mbtree=0 / crf=16.8000 / qcomp=0.60 / qpmin=0:0:0 / qpmax=69:69:69 / qpstep=4 / vbv_maxrate=40000 / vbv_bufsize=30000 / crf_max=0.0 / nal_hrd=none / filler=0 / ip_ratio=1.40 / pb_ratio=1.30 / aq=1:0.90 / aq-sensitivity=10.00 / aq-factor=1.00:1.00:1.00 / aq2=0 / aq3=0
Язык : English
Default : Да
Forced : Да

Аудио #1
Идентификатор : 2
Формат : AC-3
Формат/Информация : Audio Coding 3
Расширение режима : CM (complete main)
Параметр Endianness формата : Big
Идентификатор кодека : A_AC3
Продолжительность : 2 ч. 1 м.
Вид битрейта : Постоянный
Битрейт : 192 Кбит/сек
Каналы : 2 канала
Расположение каналов : Front: L R
Частота : 48,0 КГц
Частота кадров : 31,250 кадров/сек (1536 spf)
Метод сжатия : С потерями
Размер потока : 167 Мбайт (1%)
Заголовок : AC3 2.0 @ 192 kbps - Dub (Line)
Язык : Russian
Default : Да
Forced : Да

Аудио #2
Идентификатор : 3
Формат : AC-3
Формат/Информация : Audio Coding 3
Расширение режима : CM (complete main)
Параметр Endianness формата : Big
Идентификатор кодека : A_AC3
Продолжительность : 2 ч. 1 м.
Вид битрейта : Постоянный
Битрейт : 640 Кбит/сек
Каналы : 6 каналов
Расположение каналов : Front: L C R, Side: L R, LFE
Частота : 48,0 КГц
Частота кадров : 31,250 кадров/сек (1536 spf)
Метод сжатия : С потерями
Размер потока : 557 Мбайт (4%)
Заголовок : AC3 5.1 @ 640 kbps - Original
Язык : English
Default : Нет
Forced : Нет

Текст #1
Идентификатор : 4
Формат : UTF-8
Идентификатор кодека : S_TEXT/UTF8
Идентификатор кодека/Информация : UTF-8 Plain Text
Заголовок : Forced
Язык : Russian
Default : Да
Forced : Да

Текст #2
Идентификатор : 5
Формат : UTF-8
Идентификатор кодека : S_TEXT/UTF8
Идентификатор кодека/Информация : UTF-8 Plain Text
Заголовок : Full
Язык : Russian
Default : Нет
Forced : Нет

Текст #3
Идентификатор : 6
Формат : UTF-8
Идентификатор кодека : S_TEXT/UTF8
Идентификатор кодека/Информация : UTF-8 Plain Text
Заголовок : Full
Язык : English
Default : Нет
Forced : Нет

Меню
00:00:00.000 : en:Chapter 01
00:12:07.518 : en:Chapter 02
00:21:19.736 : en:Chapter 03
00:33:31.968 : en:Chapter 04
00:42:37.012 : en:Chapter 05
00:51:32.714 : en:Chapter 06
01:06:45.835 : en:Chapter 07
01:13:14.014 : en:Chapter 08
01:23:23.289 : en:Chapter 09
01:33:47.872 : en:Chapter 10
01:43:22.029 : en:Chapter 11
01:53:00.774 : en:Chapter 12
02:01:42.920 : en:Chapter 13
Свернуть

Скриншоты
Изображение
Изображение
Изображение
Свернуть
Изображение


Изображение Изображение
_________________
Не ищите меня в "ВКонтакте", в "Одноклассниках" меня нет - я на трекерах сижу!
Не в сети
Профиль  
 Добавлено: 2016-02-24 17:01 (спустя 3 часа)
Аватара пользователя
Стаж: 8 лет 1 месяц
Сообщений: 128
Спасибок: 409
Лайков: 25
рекламы нет?
Не в сети
Профиль  
 Добавлено: 2016-02-24 18:34 (спустя 1 час 32 минуты)
RG-ELEKTRO
Аватара пользователя
Стаж: 2 года 3 месяца
Сообщений: 7928
Спасибок: 53783
Лайков: 3304

CHEbupa|_|_|Ka:

рекламы нет?
Когда есть - я указываю... :)
_________________
Не ищите меня в "ВКонтакте", в "Одноклассниках" меня нет - я на трекерах сижу!
 CHEbupa|_|_|Ka нравится это.
Не в сети
Профиль  
 Добавлено: 2016-02-28 19:41 (спустя 4 дня)
Аватара пользователя
Стаж: 7 лет 6 месяцев
Возраст: 26
Сообщений: 41
Лайков: 1
Хороший фильм стоит поглядеть, в пару мест не перевода секунд по 5ть. роли не с играет
Не в сети
Профиль  
 Добавлено: 2016-03-01 17:44 (спустя 1 день 22 часа)
Top-seeder
Аватара пользователя
Стаж: 7 лет 6 месяцев
Возраст: 27
Сообщений: 2421
Спасибок: 455
Лайков: 14
GALARDO3000
там титры есть в этих местах
______________________
фильм скучный до ужаса :(
Не в сети
Профиль  
 Добавлено: 2016-03-12 13:51 (спустя 10 дней)
Аватара пользователя
Стаж: 8 лет 9 месяцев
Возраст: 28
Сообщений: 83
Лайков: 1
стремный фильм ставлю 1 балл
Не в сети
Профиль  
Начать новую темуОтветить на тему  [ Сообщений: 6 ] 
Вы не можете начинать темы
Вы не можете отвечать на сообщения
Вы не можете редактировать свои сообщения
Вы не можете удалять свои сообщения