Начать новую темуОтветить на тему  [ 1 сообщение ] 
Торрент файл
Размер: 4.2 GB • Зарегистрирован: 4 месяца • Статус: * Не проверено
Скачан: 94 раза • Желающих скачать: 0 • Поблагодарили: 25 раз
 Раздают: 0  |  0 KB/s  ]   Качают: 0  |  0 KB/s  ] 
 Полного источника не было 6 часов 
Сообщения
 Добавлено: 2016-08-03 22:15
DVD Release Group
Аватара пользователя
Стаж: 7 лет 1 месяц
Сообщений: 3543
Спасибок: 246751
Лайков: 1016
Варкрафт

Warcraft


Изображение


Год выпуска: 2016
Страна: США
Жанр: Фэнтези, боевик, приключения
Продолжительность: 02:03:07
Перевод: Профессиональный (полное дублирование)
Режиссер: Дункан Джонс
В ролях: Трэвис Фиммел, Пола Пэттон, Тоби Кеббелл, Бен Фостер, Доминик Купер, Роберт Казински, Клэнси Браун, Рут Негга, Бен Шнетцер, Каллум Кит Ренни
Описание: Веками неприступные стены Штормграда и магия защищали людей от любых напастей. Но древнее зло, побежденное и забытое тысячелетия назад, пробудилось.В самом сердце королевства открылся темный портал, и раса невиданных существ наводнила земли Азерота. Так начались события, призванные навсегда изменить судьбу этого мира.
Изображение Изображение
Качество: WEB-DL 1080p
Формат: MKV
Видео кодек: H.264
Аудио кодек: AC3
Видео: 1916x784 23.98fps 4405kbps
Аудио: 48kHz 6ch 384kbps
"MediaInfo"
Формат : Matroska
Версия формата : Version 4 / Version 2
Размер файла : 4,20 Гбайт
Продолжительность : 2 ч. 3 м.
Общий поток : 4887 Кбит/сек
Дата кодирования : UTC 2016-08-03 18:07:57
Программа кодирования : mkvmerge v8.3.0 ('Over the Horizon') 64bit
Библиотека кодирования : libebml v1.3.1 + libmatroska v1.4.2
DURATION : 02:03:06.944000000
NUMBER_OF_FRAMES : 230842
NUMBER_OF_BYTES : 354573312
_STATISTICS_WRITING_APP : mkvmerge v8.3.0 ('Over the Horizon') 64bit
_STATISTICS_WRITING_DATE_UTC : 2016-08-03 18:07:57
_STATISTICS_TAGS : BPS DURATION NUMBER_OF_FRAMES NUMBER_OF_BYTES

Видео
Идентификатор : 1
Формат : AVC
Формат/Информация : Advanced Video Codec
Профиль формата : High@L4.0
Параметр CABAC формата : Да
Параметр ReFrames формата : 5 кадров
Идентификатор кодека : V_MPEG4/ISO/AVC
Продолжительность : 2 ч. 3 м.
Битрейт : 4405 Кбит/сек
Ширина : 1916 пикселей
Высота : 784 пикселя
Соотношение сторон : 2,40:1
Режим частоты кадров : Постоянный
Частота кадров : 23,976 кадра/сек
Цветовое пространство : YUV
Субдискретизация насыщенности : 4:2:0
Битовая глубина : 8 бит
Тип развёртки : Прогрессивная
Бит/(Пиксели*Кадры) : 0.122
Размер потока : 3,79 Гбайт (90%)
Язык : English
Default : Да
Forced : Нет
Основные цвета : BT.709
Характеристики трансфера : BT.709
Коэффициенты матрицы : BT.709

Аудио
Идентификатор : 2
Формат : AC-3
Формат/Информация : Audio Coding 3
Расширение режима : CM (complete main)
Параметр Endianness формата : Big
Идентификатор кодека : A_AC3
Продолжительность : 2 ч. 3 м.
Вид битрейта : Постоянный
Битрейт : 384 Кбит/сек
Каналы : 6 каналов
Расположение каналов : Front: L C R, Side: L R, LFE
Частота : 48,0 КГц
Битовая глубина : 16 бит
Метод сжатия : С потерями
Размер потока : 338 Мбайт (8%)
Язык : Russian
Default : Да
Forced : Нет

Меню
00:00:00.000 : en:глава 1
00:09:27.000 : en:глава 2
00:15:51.000 : en:глава 3
00:22:38.000 : en:глава 4
00:29:18.000 : en:глава 5
00:38:44.000 : en:глава 6
00:46:45.000 : en:глава 7
00:53:04.000 : en:глава 8
00:56:19.000 : en:глава 9
01:02:45.000 : en:глава 10
01:07:50.000 : en:глава 11
01:12:26.000 : en:глава 12
01:17:14.000 : en:глава 13
01:22:47.000 : en:глава 14
01:26:34.000 : en:глава 15
01:32:31.000 : en:глава 16
01:40:23.000 : en:глава 17
01:47:38.000 : en:глава 18
01:51:13.000 : en:глава 19
01:53:59.000 : en:глава 20
Свернуть

"Скриншоты"
Изображение
Изображение
Изображение
Свернуть
Не в сети
Профиль  
Начать новую темуОтветить на тему  [ 1 сообщение ] 
Вы не можете начинать темы
Вы не можете отвечать на сообщения
Вы не можете редактировать свои сообщения
Вы не можете удалять свои сообщения