Начать новую темуОтветить на тему  [ 1 сообщение ] 
Торрент файл
Размер: 7.91 GB • Зарегистрирован: 11 месяцев • Статус: * Не проверено
Скачан: 15 раз • Желающих скачать: 0 • Поблагодарили: 4 раза
 Раздают: 0  |  0 KB/s  ]   Качают: 0  |  0 KB/s  ] 
 Полного источника не было 1 день 4 часа 
Сообщения
 Добавлено: 2015-12-15 09:09
RG-ELEKTRO
Аватара пользователя
Стаж: 2 года 3 месяца
Сообщений: 7928
Спасибок: 53784
Лайков: 3304
Ватиканские записи / The Vatican Tapes



Изображение


Год выпуска: 2015
Страна: США (H2F Entertainment, Lakeshore Entertainment, Lionsgate, Pantelion Films)
Жанр: ужасы, триллер
Продолжительность: 01:30:52
Перевод: Профессиональный (дубляж) (iTunes) + Любительский одноголосый (Хихидок) + Оригинальная звуковая дорожка
Субтитры: Английские

Режиссёр: Марк Невелдайн
В ролях: Кэтлин Робертсон, Майкл Пенья, Элисон Ломан, Джимон Хонсу, Дугрей Скотт, Майкл Паре, Джон Патрик Амедори, Оливия Тейлор Дадли, Темина Санни, Дэниэл Бернхард
Описание: Анжела Холмс жила обычной жизнью, пока внезапно не начала оказывать разрушительное воздействие на окружающих, причиняя людям серьезные, иногда смертельные травмы. Местный священник, отец Лозано, уверен в ее одержимости. Приглашенные для проведения сеанса экзорцизма кардиналы из Ватикана сталкиваются с древней сатанинской силой, большей, чем они могли себе представить.

Изображение Изображение Изображение
Качество: BDRip 1080p
Формат: MKV
Видео кодек: MPEG-4 AVC
Аудио кодек: AC3 / DTS
Видео: MPEG-4 AVC, 9151 Кбит/с, 1920x1080, 23.976 кадр/с
Аудио #1: AC3, 2 ch, 320 Кбит/с [Профессиональный (дубляж)]
Аудио #2: DTS, 6 ch, 1510 Кбит/с [Любительский одноголосый (Хихидок)]
Аудио #3: Aнглийский (DTS, 6 ch, 1510 Кбит/с) [Оригинальная звуковая дорожка]
Субтитры: Английские

"MI"
Формат : Matroska
Версия формата : Version 4 / Version 2
Размер файла : 7,91 Гбайт
Продолжительность : 1 ч. 30 м.
Общий поток : 12,5 Мбит/сек
Название фильма : The Vatican Tapes 2015 - NovaLan
Дата кодирования : UTC 2015-12-14 19:33:08
Программа кодирования : mkvmerge v8.3.0 ('Over the Horizon') 64bit
Библиотека кодирования : libebml v1.3.1 + libmatroska v1.4.2
DURATION : 01:19:24.509000000
NUMBER_OF_FRAMES : 1013
NUMBER_OF_BYTES : 32788
_STATISTICS_WRITING_APP : mkvmerge v8.3.0 ('Over the Horizon') 64bit
_STATISTICS_WRITING_DATE_UTC : 2015-12-14 19:33:08
_STATISTICS_TAGS : BPS DURATION NUMBER_OF_FRAMES NUMBER_OF_BYTES

Видео
Идентификатор : 1
Формат : AVC
Формат/Информация : Advanced Video Codec
Профиль формата : High@L4.1
Параметр CABAC формата : Да
Параметр ReFrames формата : 4 кадра
Идентификатор кодека : V_MPEG4/ISO/AVC
Продолжительность : 1 ч. 30 м.
Битрейт : 9151 Кбит/сек
Ширина : 1920 пикселей
Высота : 1080 пикселей
Соотношение сторон : 16:9
Частота кадров : 23,976 кадра/сек
Цветовое пространство : YUV
Субдискретизация насыщенности : 4:2:0
Битовая глубина : 8 бит
Тип развёртки : Прогрессивная
Бит/(Пиксели*Кадры) : 0.184
Размер потока : 5,63 Гбайт (71%)
Заголовок : Sergei7721
Библиотека кодирования : x264 core 146 r2538 121396c
Настройки программы : cabac=1 / ref=4 / deblock=1:-1:-1 / analyse=0x3:0x113 / me=umh / subme=11 / psy=1 / psy_rd=1.00:0.20 / mixed_ref=1 / me_range=24 / chroma_me=1 / trellis=2 / 8x8dct=1 / cqm=0 / deadzone=21,11 / fast_pskip=0 / chroma_qp_offset=-3 / threads=12 / lookahead_threads=1 / sliced_threads=0 / nr=0 / decimate=0 / interlaced=0 / bluray_compat=0 / constrained_intra=0 / bframes=6 / b_pyramid=2 / b_adapt=2 / b_bias=0 / direct=3 / weightb=1 / open_gop=0 / weightp=2 / keyint=240 / keyint_min=23 / scenecut=40 / intra_refresh=0 / rc_lookahead=40 / rc=2pass / mbtree=0 / bitrate=9151 / ratetol=1.0 / qcomp=0.60 / qpmin=0 / qpmax=69 / qpstep=4 / cplxblur=20.0 / qblur=0.5 / vbv_maxrate=50000 / vbv_bufsize=62500 / nal_hrd=none / filler=0 / ip_ratio=1.40 / pb_ratio=1.30 / aq=1:1.00
Default : Да
Forced : Нет
DURATION : 01:30:52.280000000
NUMBER_OF_FRAMES : 130724
NUMBER_OF_BYTES : 6214832073
_STATISTICS_WRITING_APP : mkvmerge v8.3.0 ('Over the Horizon') 64bit
_STATISTICS_WRITING_DATE_UTC : 2015-12-14 19:33:08
_STATISTICS_TAGS : BPS DURATION NUMBER_OF_FRAMES NUMBER_OF_BYTES

Аудио #1
Идентификатор : 2
Формат : AC-3
Формат/Информация : Audio Coding 3
Расширение режима : CM (complete main)
Параметр Endianness формата : Big
Идентификатор кодека : A_AC3
Продолжительность : 1 ч. 30 м.
Вид битрейта : Постоянный
Битрейт : 320 Кбит/сек
Каналы : 2 канала
Расположение каналов : Front: L R
Частота : 48,0 КГц
Битовая глубина : 16 бит
Метод сжатия : С потерями
Размер потока : 208 Мбайт (3%)
Язык : Russian
Default : Да
Forced : Нет

Аудио #2
Идентификатор : 3
Формат : DTS
Формат/Информация : Digital Theater Systems
Идентификатор кодека : A_DTS
Продолжительность : 1 ч. 30 м.
Вид битрейта : Постоянный
Битрейт : 1510 Кбит/сек
Каналы : 6 каналов
Расположение каналов : Front: L C R, Side: L R, LFE
Частота : 48,0 КГц
Битовая глубина : 24 бит
Метод сжатия : С потерями
Размер потока : 981 Мбайт (12%)
Язык : Russian
Default : Нет
Forced : Нет

Аудио #3
Идентификатор : 4
Формат : DTS
Формат/Информация : Digital Theater Systems
Идентификатор кодека : A_DTS
Продолжительность : 1 ч. 30 м.
Вид битрейта : Постоянный
Битрейт : 1510 Кбит/сек
Каналы : 6 каналов
Расположение каналов : Front: L C R, Side: L R, LFE
Частота : 48,0 КГц
Битовая глубина : 24 бит
Метод сжатия : С потерями
Размер потока : 981 Мбайт (12%)
Язык : English
Default : Нет
Forced : Нет

Текст #1
Идентификатор : 5
Формат : UTF-8
Идентификатор кодека : S_TEXT/UTF8
Идентификатор кодека/Информация : UTF-8 Plain Text
Язык : English
Default : Нет
Forced : Нет

Текст #2
Идентификатор : 6
Формат : UTF-8
Идентификатор кодека : S_TEXT/UTF8
Идентификатор кодека/Информация : UTF-8 Plain Text
Язык : English
Default : Нет
Forced : Нет

Меню
00:00:00.000 : en:00:00:00.000
00:02:53.173 : en:00:02:53.173
00:11:38.072 : en:00:11:38.072
00:18:02.122 : en:00:18:02.122
00:23:52.347 : en:00:23:52.347
00:26:37.178 : en:00:26:37.178
00:32:26.986 : en:00:32:26.986
00:39:03.424 : en:00:39:03.424
00:44:56.276 : en:00:44:56.276
00:49:55.408 : en:00:49:55.408
00:53:09.686 : en:00:53:09.686
01:02:46.095 : en:01:02:46.095
01:07:46.312 : en:01:07:46.312
01:12:17.916 : en:01:12:17.916
01:15:41.286 : en:01:15:41.286
01:18:54.229 : en:01:18:54.229
01:20:29.411 : en:01:20:29.411
Свернуть
Скриншоты
Изображение
Изображение
Изображение
Свернуть
Изображение


Изображение Изображение
Не в сети
Профиль  
Начать новую темуОтветить на тему  [ 1 сообщение ] 
Вы не можете начинать темы
Вы не можете отвечать на сообщения
Вы не можете редактировать свои сообщения
Вы не можете удалять свои сообщения