Начать новую темуОтветить на тему  [ 1 сообщение ] 
Торрент файл
Размер: 5.42 GB • Зарегистрирован: 7 месяцев • Статус: * Не проверено
Скачан: 19 раз • Желающих скачать: 0 • Поблагодарили: 7 раз
 Раздают: 0  |  0 KB/s  ]   Качают: 0  |  0 KB/s  ] 
 Полного источника не было 1 день 2 часа 
Сообщения
 Добавлено: 2016-05-10 20:59
RG-ELEKTRO
Аватара пользователя
Стаж: 2 года 3 месяца
Сообщений: 7928
Спасибок: 53801
Лайков: 3304
Выбор / The Choice


Изображение


Год выпуска: 2016
Страна: США (Nicholas Sparks Productions, Safran Company)
Жанр: Драма, мелодрама
Продолжительность: 01:51:26
Перевод: Любительский многоголосый (RecentFilms)

Режиссёр: Росс Кац
В ролях: Александра Даддарио, Тереза Палмер, Мэгги Грэйс, Бенджамин Уокер, Том Уэллинг, Том Уилкинсон, Брэд Джеймс, Анна Энгер, Бретт Райс, Вилбур Фицджералд,
Описание: Любовь? Серьезные отношения? Ответственность? Семья? Закоренелый холостяк Тревис Паркер считает, что все это не для него. У него есть отличная работа и верные друзья. Он увлекается охотой, рыбалкой, занимается экстремальными видами спорта — и избегает серьезных отношений. Но не родился еще на свет человек, которому удалось бы уйти от настоящей любви… Когда в доме по соседству поселяется тихая, замкнутая Габи, жизнь Тревиса меняется.

Изображение ИзображениеИзображение
Качество: BDRip 720p
Формат: MKV
Видео кодек: MPEG-4 AVC
Аудио кодек: AC3 / DTS
Видео: MPEG-4 AVC, 1280x530, 5275 Kbit/s, 23.976 fps
Аудио #1: 48 kHz, AC3, 2.0, 192 Kbps [Любительский многоголосый (RecentFilms)]
Аудио #2: 48 kHz, DTS, 5.1, 1510 kbps | Оригинал
Субтитры: Английские

"MI"
Общее
Уникальный идентификатор : 215590612542012902161204562542430171117 (0xA2313DDC45D0AEECBC90364AD58AAFED)
Полное имя : G:VideoThe.Choice.2016.BDRip.720p.ExKinoRay.mkv
Формат : Matroska
Версия формата : Version 4 / Version 2
Размер файла : 5,42 Гбайт
Продолжительность : 1 ч. 51 м.
Общий поток : 6978 Кбит/сек
Название фильма : The.Choice.2016.BDRip.720p.ExKinoRay
Дата кодирования : UTC 2016-05-10 12:54:51
Программа кодирования : mkvmerge v8.3.0 ('Over the Horizon') 64bit
Библиотека кодирования : libebml v1.3.1 + libmatroska v1.4.2

Видео
Идентификатор : 1
Формат : AVC
Формат/Информация : Advanced Video Codec
Профиль формата : High@L4.1
Параметр CABAC формата : Да
Параметр ReFrames формата : 12 кадров
Идентификатор кодека : V_MPEG4/ISO/AVC
Продолжительность : 1 ч. 51 м.
Битрейт : 5275 Кбит/сек
Ширина : 1280 пикселей
Высота : 530 пикселей
Соотношение сторон : 2,40:1
Режим частоты кадров : Постоянный
Частота кадров : 23,976 (24000/1001) кадра/сек
Цветовое пространство : YUV
Субдискретизация насыщенности : 4:2:0
Битовая глубина : 8 бит
Тип развёртки : Прогрессивная
Бит/(Пиксели*Кадры) : 0.324
Размер потока : 4,09 Гбайт (76%)
Заголовок : The.Choice.2016.BDRip.720p.ExKinoRay.***селезень***
Библиотека кодирования : x264 core 142 r2431+42 c69a006 tMod [8-bit@all X86_64]
Настройки программы : cabac=1 / ref=12 / deblock=1:-3:-3 / analyse=0x3:0x133 / me=umh / subme=11 / psy=1 / fade_compensate=0.00 / psy_rd=1.05:1.00 / mixed_ref=1 / me_range=32 / chroma_me=1 / trellis=2 / 8x8dct=1 / cqm=0 / deadzone=21,11 / fast_pskip=0 / chroma_qp_offset=-4 / threads=60 / lookahead_threads=4 / sliced_threads=0 / nr=0 / decimate=0 / interlaced=0 / bluray_compat=0 / constrained_intra=0 / fgo=0 / bframes=8 / b_pyramid=2 / b_adapt=2 / b_bias=0 / direct=3 / weightb=1 / open_gop=0 / weightp=2 / keyint=240 / keyint_min=23 / scenecut=40 / intra_refresh=0 / rc_lookahead=60 / rc=crf / mbtree=0 / crf=17.5000 / qcomp=0.60 / qpmin=0:0:0 / qpmax=69:69:69 / qpstep=4 / vbv_maxrate=40000 / vbv_bufsize=30000 / crf_max=0.0 / nal_hrd=none / filler=0 / ip_ratio=1.40 / pb_ratio=1.30 / aq=1:1.00 / aq-sensitivity=10.00 / aq-factor=1.00:1.00:1.00 / aq2=0 / aq3=0
Язык : English
Default : Да
Forced : Нет

Аудио #1
Идентификатор : 2
Формат : AC-3
Формат/Информация : Audio Coding 3
Расширение режима : CM (complete main)
Параметр Endianness формата : Big
Идентификатор кодека : A_AC3
Продолжительность : 1 ч. 51 м.
Вид битрейта : Постоянный
Битрейт : 192 Кбит/сек
Каналы : 2 канала
Расположение каналов : Front: L R
Частота : 48,0 КГц
Частота кадров : 31,250 кадров/сек (1536 spf)
Метод сжатия : С потерями
Размер потока : 153 Мбайт (3%)
Заголовок : MVO [RecentFilms]
Язык : Russian
Default : Да
Forced : Нет

Аудио #2
Идентификатор : 3
Формат : DTS
Формат/Информация : Digital Theater Systems
Режим : 16
Параметр Endianness формата : Big
Идентификатор кодека : A_DTS
Продолжительность : 1 ч. 51 м.
Вид битрейта : Постоянный
Битрейт : 1509 Кбит/сек
Каналы : 6 каналов
Расположение каналов : Front: L C R, Side: L R, LFE
Частота : 48,0 КГц
Частота кадров : 93,750 кадра/сек (512 spf)
Битовая глубина : 24 бит
Метод сжатия : С потерями
Размер потока : 1,17 Гбайт (22%)
Язык : English
Default : Нет
Forced : Нет

Текст
Идентификатор : 4
Формат : UTF-8
Идентификатор кодека : S_TEXT/UTF8
Идентификатор кодека/Информация : UTF-8 Plain Text
Продолжительность : 1 ч. 49 м.
Битрейт : 63 бит/сек
Count of elements : 1648
Размер потока : 51,0 Кбайт (0%)
Язык : English
Default : Нет
Forced : Нет

Меню
00:00:00.000 : en:00:00:00.000
00:04:37.277 : en:00:04:37.277
00:12:09.520 : en:00:12:09.520
00:20:26.976 : en:00:20:26.976
00:27:49.042 : en:00:27:49.042
00:34:24.396 : en:00:34:24.396
00:40:54.077 : en:00:40:54.077
00:47:25.050 : en:00:47:25.050
00:54:27.639 : en:00:54:27.639
00:58:57.993 : en:00:58:57.993
01:06:32.238 : en:01:06:32.238
01:14:04.106 : en:01:14:04.106
01:20:10.013 : en:01:20:10.013
01:28:19.044 : en:01:28:19.044
01:35:19.547 : en:01:35:19.547
01:40:33.069 : en:01:40:33.069
Свернуть

Скриншоты
Изображение
Изображение
Изображение
Свернуть
Изображение


Изображение Изображение
_________________
Не ищите меня в "ВКонтакте", в "Одноклассниках" меня нет - я на трекерах сижу!
Не в сети
Профиль  
Начать новую темуОтветить на тему  [ 1 сообщение ] 
Вы не можете начинать темы
Вы не можете отвечать на сообщения
Вы не можете редактировать свои сообщения
Вы не можете удалять свои сообщения