Начать новую темуОтветить на тему  [ Сообщений: 2 ] 
Торрент файл
Размер: 7.48 GB • Зарегистрирован: 7 месяцев • Статус: * Не проверено
Скачан: 43 раза • Желающих скачать: 0 • Поблагодарили: 16 раз
 Раздают: 0  |  0 KB/s  ]   Качают: 0  |  0 KB/s  ] 
 Полного источника не было 3 часа 
Сообщения
 Добавлено: 2016-04-09 12:05
RG-ELEKTRO
Аватара пользователя
Стаж: 2 года 3 месяца
Сообщений: 7928
Спасибок: 53776
Лайков: 3304
Выживший / The Revenant

Изображение


Изображение

Год выпуска: 2015
Страна: США (New Regency Pictures, Anonymous Content, Appian Way)
Жанр: триллер, драма, приключения, вестерн
Продолжительность: 02:36:21
Перевод: Дублированный [iTunes] + Авторский (одноголосый, закадровый) (Дмитрий Есарев)

Режиссёр: Алехандро Гонсалес Иньярриту
В ролях: Леонардо ДиКаприо, Том Харди, Донал Глисон, Уилл Поултер, Пол Андерсон, Лукас Хаас, Брэд Картер, Кристоффер Йонер, Брендан Флетчер
Описание: Охотник Хью Гласс серьезно ранен на неизведанных просторах американского Дикого Запада. Товарищ Хью по отряду покорителей новых земель Джон Фицжеральд предательски оставляет его умирать в одиночестве. Теперь у Гласса осталось только одно оружие — его сила воли. Он готов бросить вызов первобытной природе, суровой зиме и враждебным племенам индейцев, только чтобы выжить и отомстить Фицжеральду.

Изображение Изображение
Качество: BDRip 720p
Формат: MKV
Видео кодек: MPEG-4 AVC
Аудио кодек: AC3 / DTS
Видео: MPEG-4 AVC 1280x536, 23.976 fps, 4500 kbps avg
Аудио #1: 48 kHz, AC3, 3/2 (L,C,R,l,r) + LFE ch, ~384.00 kbps avg [Дублированный [iTunes]]
Аудио #2: 48 kHz, AC3, 3/2 (L,C,R,l,r) + LFE ch, ~448.00 kbps avg |Авторский, Д.Есарев|
Аудио #3: English: 48 kHz, DTS, 3/2 (L,C,R,l,r) + LFE ch, ~1509.00 kbps avg [Оригинал]
Субтитры: Russian (Forced), Russian, Ukrainian (Forced), Ukrainian, English (Forced), English

"MI"
Общее
Уникальный идентификатор : 214662394709045399410326187805816041909 (0xA17E79301D07FAFEA8BD096B2E42B1B5)
Полное имя : Выживший (2015. The Revenant).mkv
Формат : Matroska
Версия формата : Version 4 / Version 2
Размер файла : 7,48 Гбайт
Продолжительность : 2 ч. 36 м.
Общий поток : 6821 Кбит/сек
Дата кодирования : UTC 2016-04-09 02:52:37
Программа кодирования : mkvmerge v9.0.1 ('Obstacles') 64bit
Библиотека кодирования : libebml v1.3.3 + libmatroska v1.4.4
Attachements : cover.jpg

Видео
Идентификатор : 1
Формат : AVC
Формат/Информация : Advanced Video Codec
Профиль формата : High@L4.1
Параметр CABAC формата : Да
Параметр ReFrames формата : 12 кадров
Идентификатор кодека : V_MPEG4/ISO/AVC
Продолжительность : 2 ч. 36 м.
Битрейт : 4500 Кбит/сек
Ширина : 1280 пикселей
Высота : 536 пикселей
Соотношение сторон : 2,40:1
Режим частоты кадров : Постоянный
Частота кадров : 23,976 кадра/сек
Цветовое пространство : YUV
Субдискретизация насыщенности : 4:2:0
Битовая глубина : 8 бит
Тип развёртки : Прогрессивная
Бит/(Пиксели*Кадры) : 0.274
Размер потока : 4,76 Гбайт (64%)
Заголовок : The.Revenant.2015.720p.BluRay.x264.DTS-HDChina
Библиотека кодирования : x264 core 148 r2665kMod a01e339
Настройки программы : cabac=1 / ref=12 / deblock=1:-3:-3 / analyse=0x3:0x133 / me=umh / subme=11 / psy=1 / fade_compensate=0.00 / psy_rd=0.85:0.00 / mixed_ref=1 / me_range=32 / chroma_me=1 / trellis=2 / 8x8dct=1 / cqm=0 / deadzone=21,11 / fast_pskip=0 / chroma_qp_offset=-2 / threads=17 / lookahead_threads=2 / sliced_threads=0 / nr=0 / decimate=0 / interlaced=0 / bluray_compat=0 / constrained_intra=0 / fgo=0 / bframes=8 / b_pyramid=2 / b_adapt=2 / b_bias=0 / direct=3 / weightb=1 / open_gop=0 / weightp=2 / keyint=240 / keyint_min=24 / scenecut=40 / intra_refresh=0 / rc=2pass / mbtree=0 / bitrate=4500 / ratetol=1.0 / qcomp=0.70 / qpmin=0 / qpmax=69 / qpstep=4 / cplxblur=20.0 / qblur=0.5 / ip_ratio=1.20 / pb_ratio=1.20 / aq=3:0.85
Язык : English
Default : Да
Forced : Нет

Аудио #1
Идентификатор : 2
Формат : AC-3
Формат/Информация : Audio Coding 3
Расширение режима : CM (complete main)
Параметр Endianness формата : Big
Идентификатор кодека : A_AC3
Продолжительность : 2 ч. 36 м.
Вид битрейта : Постоянный
Битрейт : 384 Кбит/сек
Каналы : 6 каналов
Расположение каналов : Front: L C R, Side: L R, LFE
Частота : 48,0 КГц
Метод сжатия : С потерями
Размер потока : 431 Мбайт (6%)
Заголовок : Дубляж
Язык : Russian
Default : Нет
Forced : Нет

Аудио #2
Идентификатор : 3
Формат : AC-3
Формат/Информация : Audio Coding 3
Расширение режима : CM (complete main)
Параметр Endianness формата : Big
Идентификатор кодека : A_AC3
Продолжительность : 2 ч. 36 м.
Вид битрейта : Постоянный
Битрейт : 448 Кбит/сек
Каналы : 6 каналов
Расположение каналов : Front: L C R, Side: L R, LFE
Частота : 48,0 КГц
Метод сжатия : С потерями
Размер потока : 503 Мбайт (7%)
Заголовок : Дмитрий Есарев
Язык : Russian
Default : Да
Forced : Нет

Аудио #3
Идентификатор : 4
Формат : DTS
Формат/Информация : Digital Theater Systems
Режим : 16
Параметр Endianness формата : Big
Идентификатор кодека : A_DTS
Продолжительность : 2 ч. 36 м.
Вид битрейта : Постоянный
Битрейт : 1509 Кбит/сек
Каналы : 6 каналов
Расположение каналов : Front: L C R, Side: L R, LFE
Частота : 48,0 КГц
Битовая глубина : 24 бит
Метод сжатия : С потерями
Размер потока : 1,65 Гбайт (22%)
Язык : English
Default : Нет
Forced : Нет

Текст #1
Идентификатор : 5
Формат : UTF-8
Идентификатор кодека : S_TEXT/UTF8
Идентификатор кодека/Информация : UTF-8 Plain Text
Заголовок : forced
Язык : Russian
Default : Да
Forced : Нет

Текст #2
Идентификатор : 6
Формат : UTF-8
Идентификатор кодека : S_TEXT/UTF8
Идентификатор кодека/Информация : UTF-8 Plain Text
Язык : Russian
Default : Нет
Forced : Нет

Текст #3
Идентификатор : 7
Формат : UTF-8
Идентификатор кодека : S_TEXT/UTF8
Идентификатор кодека/Информация : UTF-8 Plain Text
Заголовок : forced
Язык : English
Default : Нет
Forced : Нет

Текст #4
Идентификатор : 8
Формат : UTF-8
Идентификатор кодека : S_TEXT/UTF8
Идентификатор кодека/Информация : UTF-8 Plain Text
Язык : English
Default : Нет
Forced : Нет

Текст #5
Идентификатор : 9
Формат : UTF-8
Идентификатор кодека : S_TEXT/UTF8
Идентификатор кодека/Информация : UTF-8 Plain Text
Заголовок : forced
Язык : Ukrainian
Default : Нет
Forced : Нет

Текст #6
Идентификатор : 10
Формат : UTF-8
Идентификатор кодека : S_TEXT/UTF8
Идентификатор кодека/Информация : UTF-8 Plain Text
Язык : Ukrainian
Default : Нет
Forced : Нет

Меню
00:00:00.000 : en:00:00:00.000
00:05:04.846 : en:00:05:04.846
00:07:58.311 : en:00:07:58.311
00:13:18.965 : en:00:13:18.965
00:21:10.686 : en:00:21:10.686
00:28:21.658 : en:00:28:21.658
00:37:07.767 : en:00:37:07.767
00:44:00.346 : en:00:44:00.346
00:48:14.975 : en:00:48:14.975
00:51:42.266 : en:00:51:42.266
00:56:51.033 : en:00:56:51.033
00:59:50.754 : en:00:59:50.754
01:03:31.766 : en:01:03:31.766
01:11:52.433 : en:01:11:52.433
01:16:36.133 : en:01:16:36.133
01:21:22.377 : en:01:21:22.377
01:28:31.139 : en:01:28:31.139
01:37:29.969 : en:01:37:29.969
01:48:44.643 : en:01:48:44.643
01:53:08.782 : en:01:53:08.782
01:59:05.930 : en:01:59:05.930
02:02:56.703 : en:02:02:56.703
02:15:45.262 : en:02:15:45.262
02:22:51.021 : en:02:22:51.021
Свернуть

Скриншоты
Изображение
Изображение
Изображение
Свернуть
Изображение


Изображение Изображение
_________________
Не ищите меня в "ВКонтакте", в "Одноклассниках" меня нет - я на трекерах сижу!
 MarkII нравится это.
Не в сети
Профиль  
 Добавлено: 2016-04-10 12:09 (спустя 1 день)
Аватара пользователя
Стаж: 8 лет 8 месяцев
Возраст: 55
Сообщений: 264
Лайков: 19
Субтитры отображаются некорректно (кракозябры), КМР плеер не понимает и железный (медиаплеер) не справился с русскими субтитрами. А текста, которого нужно переводить, предостаточно! :( Зарубежные товарищи холода и сырости не боятся. За время съемок никто не заболел, звери не пострадали. Все отрицательные персонажи - Русские! Из-за санкций, направленных на мирное урегулирование, враждебную речь перевели только на украинский язык. :)
 lupin нравится это.
Не в сети
Профиль  
Начать новую темуОтветить на тему  [ Сообщений: 2 ] 
Вы не можете начинать темы
Вы не можете отвечать на сообщения
Вы не можете редактировать свои сообщения
Вы не можете удалять свои сообщения