Начать новую темуОтветить на тему  [ Сообщений: 2 ] 
Торрент файл
Размер: 33.48 GB • Зарегистрирован: 7 месяцев • Статус: * Не проверено
Скачан: 52 раза • Желающих скачать: 0 • Поблагодарили: 10 раз
 Раздают: 1  |  0 KB/s  ]   Качают: 0  |  0 KB/s  ] 
Сообщения
 Добавлено: 2016-04-10 07:56
RG-ELEKTRO
Аватара пользователя
Стаж: 2 года 3 месяца
Сообщений: 7928
Спасибок: 53784
Лайков: 3304
Выживший / The Revenant

Изображение


Изображение

Год выпуска: 2015
Страна: США (New Regency Pictures, Anonymous Content, Appian Way)
Жанр: триллер, драма, приключения, вестерн
Продолжительность: 02:36:21
Перевод: Дублированный [iTunes]

Режиссёр: Алехандро Гонсалес Иньярриту
В ролях: Леонардо ДиКаприо, Том Харди, Донал Глисон, Уилл Поултер, Пол Андерсон, Лукас Хаас, Брэд Картер, Кристоффер Йонер, Брендан Флетчер
Описание: Охотник Хью Гласс серьезно ранен на неизведанных просторах американского Дикого Запада. Товарищ Хью по отряду покорителей новых земель Джон Фицжеральд предательски оставляет его умирать в одиночестве. Теперь у Гласса осталось только одно оружие — его сила воли. Он готов бросить вызов первобытной природе, суровой зиме и враждебным племенам индейцев, только чтобы выжить и отомстить Фицжеральду.

Изображение Изображение
Качество: BDRemux 1080p
Формат: MKV
Видео кодек: MPEG-4 AVC
Аудио кодек: AC3 / DTS-HD MA
Видео: MPEG-4 AVC, 1920x1080, 25.5 Mbit/s, 23.976 fps
Аудио #1: 48 kHz, AC3, 3/2 (L,C,R,l,r) + LFE ch, ~384.00 kbps avg [Дублированный [iTunes]]
Аудио #2: Ukrainian: 48 kHz, AC3, 2/0 (L,R) ch, ~192.00 kbps avg | Дублированный, iTunes |
Аудио #3: English: 48 kHz/24-bit, DTS-HD MA 7.1, ~4603.00 kbps avg [Оригинал]
Субтитры: Russian (Forced, iTunes), Russian (Full, iTunes), Ukrainian (Forced, iTunes), Ukrainian (Full, iTunes), English

"MI"
Общее
Уникальный идентификатор : 185414491581102496133094523835028196758 (0x8B7D883AB7588E38B3039990149DCD96)
Полное имя : E:VideoThe.Revenant.2015.BDREMUX.1080p (S).mkv
Формат : Matroska
Версия формата : Version 4 / Version 2
Размер файла : 33,5 Гбайт
Продолжительность : 2 ч. 36 м.
Режим общего битрейта : Переменный
Общий поток : 30,5 Мбит/сек
Название фильма : The.Revenant.2015.BDREMUX.1080p (S)
Дата кодирования : UTC 2016-04-09 21:29:19
Программа кодирования : mkvmerge v8.3.0 ('Over the Horizon') 64bit
Библиотека кодирования : libebml v1.3.1 + libmatroska v1.4.2
Обложка : Yes
Attachments : cover.jpg

Видео
Идентификатор : 1
Формат : AVC
Формат/Информация : Advanced Video Codec
Профиль формата : High@L4.1
Параметр CABAC формата : Да
Параметр ReFrames формата : 2 кадра
Идентификатор кодека : V_MPEG4/ISO/AVC
Продолжительность : 2 ч. 36 м.
Вид битрейта : Переменный
Битрейт : 25,5 Мбит/сек
Ширина : 1920 пикселей
Высота : 1080 пикселей
Соотношение сторон : 16:9
Режим частоты кадров : Постоянный
Частота кадров : 23,976 (24000/1001) кадра/сек
Цветовое пространство : YUV
Субдискретизация насыщенности : 4:2:0
Битовая глубина : 8 бит
Тип развёртки : Прогрессивная
Бит/(Пиксели*Кадры) : 0.512
Размер потока : 27,8 Гбайт (83%)
Язык : English
Default : Да
Forced : Нет

Аудио #1
Идентификатор : 2
Формат : AC-3
Формат/Информация : Audio Coding 3
Расширение режима : CM (complete main)
Параметр Endianness формата : Big
Идентификатор кодека : A_AC3
Продолжительность : 2 ч. 36 м.
Вид битрейта : Постоянный
Битрейт : 384 Кбит/сек
Каналы : 6 каналов
Расположение каналов : Front: L C R, Side: L R, LFE
Частота : 48,0 КГц
Частота кадров : 31,250 кадров/сек (1536 spf)
Метод сжатия : С потерями
Размер потока : 429 Мбайт (1%)
Заголовок : DUB [iTunes]
Язык : Russian
Default : Да
Forced : Нет

Аудио #2
Идентификатор : 3
Формат : AC-3
Формат/Информация : Audio Coding 3
Расширение режима : CM (complete main)
Параметр Endianness формата : Big
Идентификатор кодека : A_AC3
Продолжительность : 2 ч. 36 м.
Вид битрейта : Постоянный
Битрейт : 192 Кбит/сек
Каналы : 2 канала
Расположение каналов : Front: L R
Частота : 48,0 КГц
Частота кадров : 31,250 кадров/сек (1536 spf)
Метод сжатия : С потерями
Размер потока : 215 Мбайт (1%)
Заголовок : DUB [iTunes]
Язык : Ukrainian
Default : Нет
Forced : Нет

Аудио #3
Идентификатор : 4
Формат : DTS
Формат/Информация : Digital Theater Systems
Профиль формата : MA / Core
Режим : 16
Параметр Endianness формата : Big
Идентификатор кодека : A_DTS
Продолжительность : 2 ч. 36 м.
Вид битрейта : Переменный / Постоянный
Битрейт : 4603 Кбит/сек / 1509 Кбит/сек
Каналы : 8 каналов / 6 каналов
Расположение каналов : Front: L C R, Side: L R, Back: L R, LFE / Front: L C R, Side: L R, LFE
Частота : 48,0 КГц
Частота кадров : 93,750 кадра/сек (512 spf)
Битовая глубина : 24 бит
Метод сжатия : Без потерь / Lossy
Размер потока : 5,03 Гбайт (15%)
Заголовок : Original
Язык : English
Default : Нет
Forced : Нет

Текст #1
Идентификатор : 5
Формат : UTF-8
Идентификатор кодека : S_TEXT/UTF8
Идентификатор кодека/Информация : UTF-8 Plain Text
Продолжительность : 2 ч. 35 м.
Битрейт : 5 бит/сек
Count of elements : 146
Размер потока : 6,05 Кбайт (0%)
Заголовок : forced
Язык : Russian
Default : Да
Forced : Нет

Текст #2
Идентификатор : 6
Формат : UTF-8
Идентификатор кодека : S_TEXT/UTF8
Идентификатор кодека/Информация : UTF-8 Plain Text
Продолжительность : 2 ч. 35 м.
Битрейт : 37 бит/сек
Count of elements : 847
Размер потока : 43,0 Кбайт (0%)
Язык : Russian
Default : Нет
Forced : Нет

Текст #3
Идентификатор : 7
Формат : UTF-8
Идентификатор кодека : S_TEXT/UTF8
Идентификатор кодека/Информация : UTF-8 Plain Text
Продолжительность : 2 ч. 35 м.
Битрейт : 3 бит/сек
Count of elements : 135
Размер потока : 3,56 Кбайт (0%)
Заголовок : forced
Язык : English
Default : Нет
Forced : Нет

Текст #4
Идентификатор : 8
Формат : UTF-8
Идентификатор кодека : S_TEXT/UTF8
Идентификатор кодека/Информация : UTF-8 Plain Text
Продолжительность : 2 ч. 35 м.
Битрейт : 23 бит/сек
Count of elements : 834
Размер потока : 26,6 Кбайт (0%)
Язык : English
Default : Нет
Forced : Нет

Текст #5
Идентификатор : 9
Формат : UTF-8
Идентификатор кодека : S_TEXT/UTF8
Идентификатор кодека/Информация : UTF-8 Plain Text
Продолжительность : 2 ч. 35 м.
Битрейт : 5 бит/сек
Count of elements : 146
Размер потока : 5,76 Кбайт (0%)
Язык : Ukrainian
Default : Нет
Forced : Нет

Текст #6
Идентификатор : 10
Формат : UTF-8
Идентификатор кодека : S_TEXT/UTF8
Идентификатор кодека/Информация : UTF-8 Plain Text
Продолжительность : 2 ч. 35 м.
Битрейт : 38 бит/сек
Count of elements : 846
Размер потока : 44,5 Кбайт (0%)
Язык : Ukrainian
Default : Нет
Forced : Нет

Меню
00:00:00.000 : en:00:00:00.000
00:05:04.846 : en:00:05:04.846
00:07:58.311 : en:00:07:58.311
00:13:18.965 : en:00:13:18.965
00:21:10.686 : en:00:21:10.686
00:28:21.658 : en:00:28:21.658
00:37:07.767 : en:00:37:07.767
00:44:00.346 : en:00:44:00.346
00:48:14.975 : en:00:48:14.975
00:51:42.266 : en:00:51:42.266
00:56:51.033 : en:00:56:51.033
00:59:50.754 : en:00:59:50.754
01:03:31.766 : en:01:03:31.766
01:11:52.433 : en:01:11:52.433
01:16:36.133 : en:01:16:36.133
01:21:22.377 : en:01:21:22.377
01:28:31.139 : en:01:28:31.139
01:37:29.969 : en:01:37:29.969
01:48:44.643 : en:01:48:44.643
01:53:08.782 : en:01:53:08.782
01:59:05.930 : en:01:59:05.930
02:02:56.703 : en:02:02:56.703
02:15:45.262 : en:02:15:45.262
02:22:51.021 : en:02:22:51.021
Свернуть

Скриншоты
Изображение
Изображение
Изображение
Свернуть
Изображение


Изображение Изображение
_________________
Не ищите меня в "ВКонтакте", в "Одноклассниках" меня нет - я на трекерах сижу!
Не в сети
Профиль  
 Добавлено: 2016-06-26 01:40 (спустя 2 месяца 15 дней)
Стаж: 6 лет 11 месяцев
Сообщений: 9
30% разговоров в фильме не переведено (индейцы и французы), на середине фильма всё тупо зависло!(((
Не в сети
Профиль  
Начать новую темуОтветить на тему  [ Сообщений: 2 ] 
Вы не можете начинать темы
Вы не можете отвечать на сообщения
Вы не можете редактировать свои сообщения
Вы не можете удалять свои сообщения