Начать новую темуОтветить на тему  [ Сообщений: 7 ] 
Торрент файл
Размер: 5.7 GB • Зарегистрирован: 8 месяцев • Статус: * Не проверено
Скачан: 486 раз • Желающих скачать: 0 • Поблагодарили: 82 раза
 Раздают: 5  |  0 KB/s  ]   Качают: 0  |  0 KB/s  ] 
Сообщения
 Добавлено: 2016-03-22 06:52
RG-ELEKTRO
Аватара пользователя
Стаж: 2 года 3 месяца
Сообщений: 7928
Спасибок: 53739
Лайков: 3304
Выживший / The Revenant

Изображение


Изображение

Год выпуска: 2015
Страна: США (New Regency Pictures, Anonymous Content, Appian Way)
Жанр: триллер, драма, приключения, вестерн
Продолжительность: 02:36:21
Перевод: Дублированный [iTunes]

Режиссёр: Алехандро Гонсалес Иньярриту
В ролях: Леонардо ДиКаприо, Том Харди, Донал Глисон, Уилл Поултер, Пол Андерсон, Лукас Хаас, Брэд Картер, Кристоффер Йонер, Брендан Флетчер
Описание: Охотник Хью Гласс серьезно ранен на неизведанных просторах американского Дикого Запада. Товарищ Хью по отряду покорителей новых земель Джон Фицжеральд предательски оставляет его умирать в одиночестве. Теперь у Гласса осталось только одно оружие — его сила воли. Он готов бросить вызов первобытной природе, суровой зиме и враждебным племенам индейцев, только чтобы выжить и отомстить Фицжеральду.

Изображение Изображение Изображение
Качество: WEB-DL 1080p
Формат: MKV
Видео кодек: MPEG-4 AVC
Аудио кодек: AC3 / AAC
Видео: MPEG-4 AVC 1916x792 4496kbps 23.976fps High@L4
Аудио #1: AC3 5.1 48kHz 384kbps [Дублированный [iTunes]]
Аудио #2: AAC 2.0 48kHz 160kbps [Оригинал]
Субтитры: Русские, украинские, английские (форсированные и полные)

"MI"
General
Unique ID : 189301016396554633714867440690490442182 (0x8E6A0CB27624CC2CA5FF34B5ECEF01C6)
Complete name : O:\~Adventure\Выживший (2015) WEB-DL [1080p].mkv
Format : Matroska
Format version : Version 4 / Version 2
File size : 5.70 GiB
Duration : 2h 36mn
Overall bit rate : 5 196 Kbps
Movie name : REVENANT_WEB_DL_1080p-BLUEBIRD
Encoded date : UTC 2016-03-21 19:30:00
Writing application : mkvmerge v7.1.0 ('Good Love') 64bit built on Jul 27 2014 13:06:55
Writing library : libebml v1.3.0 + libmatroska v1.4.1

Video
ID : 1
Format : AVC
Format/Info : Advanced Video Codec
Format profile : High@L4
Format settings, CABAC : Yes
Format settings, ReFrames : 5 frames
Codec ID : V_MPEG4/ISO/AVC
Duration : 2h 36mn
Bit rate : 4 496 Kbps
Width : 1 916 pixels
Height : 792 pixels
Display aspect ratio : 2.40:1
Frame rate mode : Constant
Frame rate : 23.976 (23976/1000) fps
Color space : YUV
Chroma subsampling : 4:2:0
Bit depth : 8 bits
Scan type : Progressive
Bits/(Pixel*Frame) : 0.124
Stream size : 4.93 GiB (87%)
Title : REVENANT_WEB_DL_1080p-BLUEBIRD
Language : English
Default : Yes
Forced : No
Color range : Limited
Color primaries : BT.709
Transfer characteristics : BT.709
Matrix coefficients : BT.709

Audio #1
ID : 2
Format : AC-3
Format/Info : Audio Coding 3
Mode extension : CM (complete main)
Format settings, Endianness : Big
Codec ID : A_AC3
Duration : 2h 36mn
Bit rate mode : Constant
Bit rate : 384 Kbps
Channel(s) : 6 channels
Channel positions : Front: L C R, Side: L R, LFE
Sampling rate : 48.0 KHz
Frame rate : 31.250 fps (1536 spf)
Compression mode : Lossy
Stream size : 429 MiB (7%)
Title : [DUB] DD 5.1 @ 384 kbps
Language : Russian
Default : Yes
Forced : No

Audio #2
ID : 3
Format : AAC
Format/Info : Advanced Audio Codec
Format profile : LC
Codec ID : A_AAC
Duration : 2h 36mn
Bit rate : 159 Kbps
Channel(s) : 2 channels
Channel positions : Front: L R
Sampling rate : 48.0 KHz
Frame rate : 46.875 fps (1024 spf)
Compression mode : Lossy
Stream size : 177 MiB (3%)
Title : [DUB] AAC @ 160 kbps
Language : Ukrainian
Default : No
Forced : No

Audio #3
ID : 4
Format : AAC
Format/Info : Advanced Audio Codec
Format profile : LC
Codec ID : A_AAC
Duration : 2h 36mn
Bit rate : 156 Kbps
Channel(s) : 2 channels
Channel positions : Front: L R
Sampling rate : 48.0 KHz
Frame rate : 46.875 fps (1024 spf)
Compression mode : Lossy
Stream size : 175 MiB (3%)
Title : [ORIGINAL] AAC @ 160 kbps
Language : English
Default : No
Forced : No

Text #1
ID : 5
Format : UTF-8
Codec ID : S_TEXT/UTF8
Codec ID/Info : UTF-8 Plain Text
Duration : 2h 35mn
Bit rate : 38 bps
Count of elements : 847
Stream size : 43.2 KiB (0%)
Title : Full-length
Language : Russian
Default : No
Forced : No

Text #2
ID : 6
Format : UTF-8
Codec ID : S_TEXT/UTF8
Codec ID/Info : UTF-8 Plain Text
Duration : 2h 35mn
Bit rate : 39 bps
Count of elements : 846
Stream size : 44.7 KiB (0%)
Title : Full-length
Language : Ukrainian
Default : No
Forced : No

Text #3
ID : 7
Format : UTF-8
Codec ID : S_TEXT/UTF8
Codec ID/Info : UTF-8 Plain Text
Duration : 2h 20mn
Bit rate : 25 bps
Count of elements : 834
Stream size : 26.8 KiB (0%)
Title : Full-length
Language : English
Default : No
Forced : No

Text #4
ID : 8
Format : UTF-8
Codec ID : S_TEXT/UTF8
Codec ID/Info : UTF-8 Plain Text
Duration : 2h 35mn
Bit rate : 5 bps
Count of elements : 146
Stream size : 6.20 KiB (0%)
Title : Forced
Language : Russian
Default : Yes
Forced : Yes

Text #5
ID : 9
Format : UTF-8
Codec ID : S_TEXT/UTF8
Codec ID/Info : UTF-8 Plain Text
Duration : 2h 35mn
Bit rate : 5 bps
Count of elements : 146
Stream size : 5.91 KiB (0%)
Title : Forced
Language : Ukrainian
Default : No
Forced : No

Text #6
ID : 10
Format : UTF-8
Codec ID : S_TEXT/UTF8
Codec ID/Info : UTF-8 Plain Text
Duration : 2h 20mn
Bit rate : 3 bps
Count of elements : 135
Stream size : 3.69 KiB (0%)
Title : Forced
Language : English
Default : No
Forced : No

Menu
00:00:00.000 : en:1
00:05:04.846 : en:2
00:07:58.311 : en:3
00:13:18.964 : en:4
00:21:10.685 : en:5
00:28:21.657 : en:6
00:37:07.766 : en:7
00:44:00.345 : en:8
00:48:14.974 : en:9
00:51:42.264 : en:10
00:56:51.031 : en:11
00:59:50.752 : en:12
01:03:31.764 : en:13
01:11:52.431 : en:14
01:16:36.131 : en:15
01:21:22.375 : en:16
01:28:31.137 : en:17
01:37:29.967 : en:18
01:48:44.641 : en:19
01:53:08.780 : en:20
01:59:05.928 : en:21
02:02:56.700 : en:22
02:15:45.260 : en:23
02:22:51.019 : en:24
Свернуть

Скриншоты
Изображение
Изображение
Изображение
Свернуть
Изображение


Изображение Изображение
_________________
Не ищите меня в "ВКонтакте", в "Одноклассниках" меня нет - я на трекерах сижу!
Не в сети
Профиль  
 Добавлено: 2016-03-22 20:31 (спустя 13 часов)
Аватара пользователя
Стаж: 9 лет 1 месяц
Возраст: 36
Сообщений: 195
Спасибок: 20
Лайков: 8
на 6 часов позже чем на рутрекере выложили, что все это время делали??)))
Не в сети
Профиль  
 Добавлено: 2016-03-22 22:26 (спустя 1 час 54 минуты)
Аватара пользователя
Стаж: 6 лет 5 месяцев
Сообщений: 19941
Спасибок: 721
Лайков: 459

kirpichnic:

то все это время делали??
смотрели фильм. :hi_hi_hi:
_________________
It was I'am ... :jn_pu_sk:
Медали и Ордена
ИзображениеИзображение
Свернуть
Не в сети
Профиль  
 Добавлено: 2016-03-23 01:48 (спустя 3 часа)
Аватара пользователя
Стаж: 7 лет 8 месяцев
Сообщений: 931
Лайков: 48
*ЖОРА*
2 раза)
Не в сети
Профиль  
 Добавлено: 2016-03-23 11:55 (спустя 10 часов)
Top-seeder
Аватара пользователя
Стаж: 8 лет 1 месяц
Возраст: 31
Сообщений: 581
Спасибок: 2
Лайков: 146
а чего у нас фильмы по месяцу не проверяются?
Не в сети
Профиль  
 Добавлено: 2016-03-23 15:11 (спустя 3 часа)
Аватара пользователя
Стаж: 8 лет 7 месяцев
Возраст: 28
Сообщений: 205
Лайков: 1
А когда BDrip 1080p?
_________________
Intel Core i7 860 3,36 , Asus Maximus Formula III, 8 Gb DDR3 1600 оперативы, GTX 580.
Не в сети
Профиль  
 Добавлено: 2016-03-23 16:56 (спустя 1 час 44 минуты)
RG-ELEKTRO
Аватара пользователя
Стаж: 2 года 3 месяца
Сообщений: 7928
Спасибок: 53739
Лайков: 3304

kirpichnic:

на 6 часов позже чем на рутрекере выложили, что все это время делали??)))
Лично я спала, за что дико извиняюсь :-D
_________________
Не ищите меня в "ВКонтакте", в "Одноклассниках" меня нет - я на трекерах сижу!
Не в сети
Профиль  
Начать новую темуОтветить на тему  [ Сообщений: 7 ] 
Вы не можете начинать темы
Вы не можете отвечать на сообщения
Вы не можете редактировать свои сообщения
Вы не можете удалять свои сообщения