Начать новую темуОтветить на тему  [ 1 сообщение ] 
Торрент файл
Размер: 10.2 GB • Зарегистрирован: 9 месяцев • Статус: * Не проверено
Скачан: 112 раз • Желающих скачать: 0 • Поблагодарили: 24 раза
 Раздают: 0  |  0 KB/s  ]   Качают: 0  |  0 KB/s  ] 
 Полного источника не было 8 часов 
Сообщения
 Добавлено: 2016-02-26 07:18
RG-ELEKTRO
Аватара пользователя
Стаж: 2 года 3 месяца
Сообщений: 7928
Спасибок: 53785
Лайков: 3304
Виктор Франкенштейн / Victor Frankenstein

Изображение

Изображение


Год выпуска: 2015
Страна: США (20th Century Fox Film Corporation, TSG Entertainment, Moving Picture Company, Davis Entertainment)
Жанр: Ужасы, фантастика, драма
Продолжительность: 01:49:51
Перевод: Профессиональный (дубляж) [iTunes] + Оригинальная звуковая дорожка
Субтитры: Английские

Режиссёр: Пол МакГиган
В ролях: Дэниэл Рэдклифф, Джессика Браун-Финдлэй, Бронсон Уэбб, Джеймс МакЭвой, Дэниэл Мейс, Спенсер Уидлинг, Робин Пирс, Эндрю Скотт, Каллум Тернер, Ди Ботчер, Ив Понсонби, Уилл Кин, Лу Брили, Николя Слоун, Фредди Фокс, Чарльз Дэнс, Алистэр Петри, Нил Белл, Марк Гейтисс, Гийом Делони
Описание: Виктор Франкенштейн посещает цирк, чтобы дешево купить трупы животных. Талантливый ученый ставит необычные эксперименты, пытаясь оживить мертвых существ. Но он встречает горбуна и понимает, что ужасная внешность юноши — это лишь маска, за которой скрывается пытливый ум. Такой помощник пригодится ученому. Так что Виктор похищает молодого человека и дает ему не только новый дом, но и новую личность. Теперь юношу зовут Игорь. И он бесконечно благодарен своему спасителю. Эксперименты увлекают его, а само осознание важности этой работы ставит молодого человека на другой уровень. Но как скоро он поймет, что ввязался в ужасную игру.

Изображение Изображение Изображение
Качество: BDRip 1080p
Формат: MKV
Видео кодек: MPEG-4 AVC
Аудио кодек: AC3 / DTS
Видео: MPEG-4 AVC, 11.4 Мбит/с, 1920x800
Аудио #1: AC3, 6 ch, 384 Кбит/с [Профессиональный (дубляж)]
Аудио #2: английский (DTS, 6 ch, 1509 Кбит/с) [Оригинальная звуковая дорожка]
Субтитры: Английские

"MI"

General
Unique ID : 170552564007849147782026166000878379264 (0x804F3AA07EF61E6889E30F4145E46100)
Complete name : D:\Vic.Frank.2O16.D.BDRip.1O8OP.mkv
Format : Matroska
Format version : Version 2
File size : 10.2 GiB
Duration : 1h 49mn
Overall bit rate : 13.3 Mbps
Encoded date : UTC 2016-02-25 19:54:12
Writing application : mkvmerge v8.3.0 ('Over the Horizon') 64bit
Writing library : libebml v1.3.1 + libmatroska v1.4.2

Video
ID : 1
Format : AVC
Format/Info : Advanced Video Codec
Format profile : High@L4.1
Format settings, CABAC : Yes
Format settings, ReFrames : 2 frames
Codec ID : V_MPEG4/ISO/AVC
Duration : 1h 49mn
Bit rate : 11.4 Mbps
Width : 1 920 pixels
Height : 800 pixels
Display aspect ratio : 2.40:1
Frame rate mode : Constant
Frame rate : 23.976 (24000/1001) fps
Color space : YUV
Chroma subsampling : 4:2:0
Bit depth : 8 bits
Scan type : Progressive
Bits/(Pixel*Frame) : 0.310
Stream size : 8.74 GiB (86%)
Language : English
Default : No
Forced : No

Audio #1
ID : 2
Format : AC-3
Format/Info : Audio Coding 3
Mode extension : CM (complete main)
Format settings, Endianness : Big
Codec ID : A_AC3
Duration : 1h 49mn
Bit rate mode : Constant
Bit rate : 384 Kbps
Channel(s) : 6 channels
Channel positions : Front: L C R, Side: L R, LFE
Sampling rate : 48.0 KHz
Frame rate : 31.250 fps (1536 spf)
Compression mode : Lossy
Stream size : 302 MiB (3%)
Language : Russian
Default : Yes
Forced : No

Audio #2
ID : 3
Format : DTS
Format/Info : Digital Theater Systems
Format profile : ES Matrix / Core
Mode : 16
Format settings, Endianness : Big
Codec ID : A_DTS
Duration : 1h 49mn
Bit rate mode : Constant
Bit rate : 1 509 Kbps
Channel(s) : 7 channels / 6 channels
Channel positions : Front: L C R, Side: L R, Back: C, LFE / Front: L C R, Side: L R, LFE
Sampling rate : 48.0 KHz
Frame rate : 93.750 fps (512 spf)
Bit depth : 24 bits
Compression mode : Lossy
Stream size : 1.16 GiB (11%)
Language : English
Default : No
Forced : No

Text
ID : 4
Format : UTF-8
Codec ID : S_TEXT/UTF8
Codec ID/Info : UTF-8 Plain Text
Duration : 1h 42mn
Bit rate : 50 bps
Count of elements : 1146
Stream size : 38.0 KiB (0%)
Language : English
Default : No
Forced : No

Menu
00:00:00.000 : en:
00:04:07.372 : en:
00:08:06.903 : en:
00:11:14.674 : en:
00:15:20.377 : en:
00:18:58.554 : en:
00:22:27.262 : en:
00:26:06.856 : en:
00:28:59.237 : en:
00:32:02.378 : en:
00:36:01.450 : en:
00:41:11.427 : en:
00:46:17.691 : en:
00:51:48.480 : en:
00:56:42.690 : en:
00:59:55.508 : en:
01:02:37.587 : en:
01:06:57.179 : en:
01:11:25.197 : en:
01:15:14.051 : en:
01:18:10.352 : en:
01:21:06.278 : en:
01:25:20.490 : en:
01:28:17.542 : en:
01:33:35.276 : en:
01:37:51.782 : en:
01:41:32.920 : en:
01:43:34.374 : en:

Свернуть

Скриншоты
Изображение
Изображение
Изображение
Свернуть
Изображение


Изображение Изображение
Не в сети
Профиль  
Начать новую темуОтветить на тему  [ 1 сообщение ] 
Вы не можете начинать темы
Вы не можете отвечать на сообщения
Вы не можете редактировать свои сообщения
Вы не можете удалять свои сообщения