Начать новую темуОтветить на тему  [ 1 сообщение ] 
Торрент файл
Размер: 5.76 GB • Зарегистрирован: 9 месяцев • Статус: * Не проверено
Скачан: 83 раза • Желающих скачать: 0 • Поблагодарили: 19 раз
 Раздают: 0  |  0 KB/s  ]   Качают: 0  |  0 KB/s  ] 
 Полного источника не было 11 часов 
Сообщения
 Добавлено: 2016-02-26 07:59
RG-ELEKTRO
Аватара пользователя
Стаж: 2 года 3 месяца
Сообщений: 7928
Спасибок: 53778
Лайков: 3304
Виктор Франкенштейн / Victor Frankenstein

Изображение

Изображение


Год выпуска: 2015
Страна: США (20th Century Fox Film Corporation, TSG Entertainment, Moving Picture Company, Davis Entertainment)
Жанр: Ужасы, фантастика, драма
Продолжительность: 01:49:51
Перевод: Профессиональный (дубляж) [iTunes] + Оригинальная звуковая дорожка
Субтитры: Русские, Английские

Режиссёр: Пол МакГиган
В ролях: Дэниэл Рэдклифф, Джессика Браун-Финдлэй, Бронсон Уэбб, Джеймс МакЭвой, Дэниэл Мейс, Спенсер Уидлинг, Робин Пирс, Эндрю Скотт, Каллум Тернер, Ди Ботчер, Ив Понсонби, Уилл Кин, Лу Брили, Николя Слоун, Фредди Фокс, Чарльз Дэнс, Алистэр Петри, Нил Белл, Марк Гейтисс, Гийом Делони
Описание: Виктор Франкенштейн посещает цирк, чтобы дешево купить трупы животных. Талантливый ученый ставит необычные эксперименты, пытаясь оживить мертвых существ. Но он встречает горбуна и понимает, что ужасная внешность юноши — это лишь маска, за которой скрывается пытливый ум. Такой помощник пригодится ученому. Так что Виктор похищает молодого человека и дает ему не только новый дом, но и новую личность. Теперь юношу зовут Игорь. И он бесконечно благодарен своему спасителю. Эксперименты увлекают его, а само осознание важности этой работы ставит молодого человека на другой уровень. Но как скоро он поймет, что ввязался в ужасную игру.

Изображение Изображение
Качество: BDRip 720p
Формат: MKV
Видео кодек: MPEG-4 AVC
Аудио кодек: AC3 / DTS
Видео: MPEG-4 AVC, 1280x536, 5613 Kbps, 23.976fps
Аудио #1: AC3, 6 ch, 384 Кбит/с [Профессиональный (дубляж)]
Аудио #2: английский (DTS, 6 ch, 1509 Кбит/с) [Оригинальная звуковая дорожка]
Субтитры: Русские, Английские

"MI"
Общее
Уникальный идентификатор : 253988761415618696433123889442974318312 (0xBF1474C3F0CC461A98E6FFC1250BBEE8)
Полное имя : D:FilmVictor Frankenstein.2015.BDRip.720p.mkv
Формат : Matroska
Версия формата : Version 2
Размер файла : 5,76 Гбайт
Продолжительность : 1 ч. 49 м.
Общий поток : 7505 Кбит/сек
Дата кодирования : UTC 2016-02-25 21:19:09
Программа кодирования : mkvmerge v4.0.0 ('The Stars were mine') сборка от Jun 6 2010 16:18:42
Библиотека кодирования : libebml v1.0.0 + libmatroska v1.0.0

Видео
Идентификатор : 1
Формат : AVC
Формат/Информация : Advanced Video Codec
Профиль формата : High@L4.1
Параметр CABAC формата : Да
Параметр ReFrames формата : 5 кадров
Идентификатор кодека : V_MPEG4/ISO/AVC
Продолжительность : 1 ч. 49 м.
Битрейт : 5613 Кбит/сек
Ширина : 1280 пикселей
Высота : 536 пикселей
Соотношение сторон : 2,40:1
Режим частоты кадров : Постоянный
Частота кадров : 23,976 кадра/сек
Цветовое пространство : YUV
Субдискретизация насыщенности : 4:2:0
Битовая глубина : 8 бит
Тип развёртки : Прогрессивная
Бит/(Пиксели*Кадры) : 0.341
Размер потока : 4,19 Гбайт (73%)
Библиотека кодирования : x264 core 148 r2665 a01e339
Настройки программы : cabac=1 / ref=5 / deblock=1:0:0 / analyse=0x3:0x133 / me=umh / subme=7 / psy=1 / psy_rd=1.00:0.00 / mixed_ref=1 / me_range=16 / chroma_me=1 / trellis=1 / 8x8dct=1 / cqm=0 / deadzone=21,11 / fast_pskip=0 / chroma_qp_offset=-2 / threads=12 / lookahead_threads=2 / sliced_threads=0 / nr=0 / decimate=1 / interlaced=0 / bluray_compat=0 / constrained_intra=0 / bframes=3 / b_pyramid=2 / b_adapt=1 / b_bias=0 / direct=1 / weightb=1 / open_gop=0 / weightp=2 / keyint=250 / keyint_min=23 / scenecut=40 / intra_refresh=0 / rc_lookahead=40 / rc=2pass / mbtree=1 / bitrate=5613 / ratetol=1.0 / qcomp=0.60 / qpmin=0 / qpmax=69 / qpstep=4 / cplxblur=20.0 / qblur=0.5 / ip_ratio=1.40 / aq=1:1.00
Язык : English
Default : Нет
Forced : Нет

Аудио #1
Идентификатор : 2
Формат : AC-3
Формат/Информация : Audio Coding 3
Расширение режима : CM (complete main)
Параметр Endianness формата : Big
Идентификатор кодека : A_AC3
Продолжительность : 1 ч. 49 м.
Вид битрейта : Постоянный
Битрейт : 384 Кбит/сек
Каналы : 6 каналов
Расположение каналов : Front: L C R, Side: L R, LFE
Частота : 48,0 КГц
Частота кадров : 31,250 кадров/сек (1536 spf)
Метод сжатия : С потерями
Размер потока : 302 Мбайт (5%)
Заголовок : DUB ITunes
Язык : Russian
Default : Да
Forced : Да

Аудио #2
Идентификатор : 3
Формат : DTS
Формат/Информация : Digital Theater Systems
Профиль формата : ES Matrix / Core
Режим : 16
Параметр Endianness формата : Big
Идентификатор кодека : A_DTS
Продолжительность : 1 ч. 49 м.
Вид битрейта : Постоянный
Битрейт : 1509 Кбит/сек
Каналы : 7 каналов / 6 каналов
Расположение каналов : Front: L C R, Side: L R, Back: C, LFE / Front: L C R, Side: L R, LFE
Частота : 48,0 КГц
Частота кадров : 93,750 кадра/сек (512 spf)
Битовая глубина : 24 бит
Метод сжатия : С потерями
Задержка видео : 11 мс.
Размер потока : 1,16 Гбайт (20%)
Язык : English
Default : Нет
Forced : Нет

Текст #1
Идентификатор : 4
Формат : UTF-8
Идентификатор кодека : S_TEXT/UTF8
Идентификатор кодека/Информация : UTF-8 Plain Text
Заголовок : Full
Язык : Russian
Default : Нет
Forced : Нет

Текст #2
Идентификатор : 5
Формат : UTF-8
Идентификатор кодека : S_TEXT/UTF8
Идентификатор кодека/Информация : UTF-8 Plain Text
Заголовок : Full
Язык : English
Default : Нет
Forced : Нет

Меню
00:00:00.000 : en:00:00:00.000
00:04:07.372 : en:00:04:07.372
00:08:06.903 : en:00:08:06.903
00:11:14.674 : en:00:11:14.674
00:15:20.378 : en:00:15:20.378
00:18:58.554 : en:00:18:58.554
00:22:27.263 : en:00:22:27.263
00:26:06.857 : en:00:26:06.857
00:28:59.237 : en:00:28:59.237
00:32:02.379 : en:00:32:02.379
00:36:01.451 : en:00:36:01.451
00:41:11.427 : en:00:41:11.427
00:46:17.692 : en:00:46:17.692
00:51:48.480 : en:00:51:48.480
00:56:42.691 : en:00:56:42.691
00:59:55.509 : en:00:59:55.509
01:02:37.587 : en:01:02:37.587
01:06:57.180 : en:01:06:57.180
01:11:25.198 : en:01:11:25.198
01:15:14.051 : en:01:15:14.051
01:18:10.352 : en:01:18:10.352
01:21:06.278 : en:01:21:06.278
01:25:20.490 : en:01:25:20.490
01:28:17.542 : en:01:28:17.542
01:33:35.276 : en:01:33:35.276
01:37:51.783 : en:01:37:51.783
01:41:32.920 : en:01:41:32.920
01:43:34.375 : en:01:43:34.375
Свернуть

Скриншоты
Изображение
Изображение
Изображение
Свернуть
Изображение


Изображение Изображение
_________________
Не ищите меня в "ВКонтакте", в "Одноклассниках" меня нет - я на трекерах сижу!
Не в сети
Профиль  
Начать новую темуОтветить на тему  [ 1 сообщение ] 
Вы не можете начинать темы
Вы не можете отвечать на сообщения
Вы не можете редактировать свои сообщения
Вы не можете удалять свои сообщения