Начать новую темуОтветить на тему  [ Сообщений: 3 ] 
Торрент файл
Размер: 3.6 GB • Зарегистрирован: 2 месяца 27 дней • Статус: T Временный релиз
Скачан: 33 раза • Желающих скачать: 0 • Поблагодарили: 15 раз
 Раздают: 1  |  0 KB/s  ]   Качают: 0  |  0 KB/s  ] 
Сообщения
 Добавлено: 2017-06-22 15:45
Top-releaser
Аватара пользователя
Стаж: 9 лет 6 месяцев
Сообщений: 547
Спасибок: 21736
Лайков: 23
Изображение

Время псов

The Hunter's Prayer


«Это просто бизнес»

Год выпуска: 2017
Страна: США, Испания, Германия / Apollo Media, FilmEngine, Full Clip Productions, HP Yorkshire Limited, Maple Leaf Films, Screen Yorkshire, Vandal Entertainment
Жанр: Боевик, триллер
Продолжительность: 01:30:50
Перевод: Профессиональный (дублированный) [iTunes], Любительский одноголосый (BadBajo), Оригинал

Режиссёр: Джонатан Мостоу / Jonathan Mostow

В ролях: Сэм Уортингтон, Мартин Компстон, Одейя Раш, Вероника Эчеги, Аллен Лич, Эми Ландекер, Дин Джаггер III, Катя Бокор, Сэм Каллингворт

Описание: За всю свою карьеру киллер-одиночка Стивен Лукас не сделал ни одной ошибки. Даже враги называли его «идеальной машиной для убийства». Но однажды он не смог нажать на курок. Теперь он и его бывшая жертва, девушка Элла с большими прекрасными глазами, скитаются по Европе, чтобы отомстить виновникам жестокого убийства ее семьи…


Качество: WEB-DL 1080р
Формат: MKV

Видео: MPEG4 Video (H264) 1920x804 23.976fps

Аудио 1: Dolby AC3 48000Hz 6ch 384kbps - Профессиональный (дублированный) - iTunes
Аудио 2: Dolby AC3 48000Hz 6ch 384kbps - Любительский одноголосый (BadBajo)
Аудио 3: Dolby AC3 48000Hz 6ch 384kbps - Оригинал

Изображение
MediaInfo

General
Unique ID : 188900630441005610149348365616779641752 (0x8E1CF0253964207EB37553ACFB904398)
Complete name : C:\Users\User\Desktop\The.Hunters.Prayer.2017.D.AVO.WEB-DL.1080p.mkv
Format : Matroska
Format version : Version 4 / Version 2
File size : 3.60 GiB
Duration : 1 h 31 min
Overall bit rate : 5 637 kb/s
Encoded date : UTC 2017-06-21 22:12:51
Writing application : mkvmerge v12.0.0 ('Trust / Lust') 64bit
Writing library : libebml v1.3.4 + libmatroska v1.4.5

Video
ID : 1
Format : AVC
Format/Info : Advanced Video Codec
Format profile : High@L4
Format settings, CABAC : Yes
Format settings, ReFrames : 5 frames
Codec ID : V_MPEG4/ISO/AVC
Duration : 1 h 30 min
Bit rate : 4 516 kb/s
Width : 1 920 pixels
Height : 804 pixels
Display aspect ratio : 2.40:1
Frame rate mode : Constant
Frame rate : 23.976 (23976/1000) FPS
Color space : YUV
Chroma subsampling : 4:2:0
Bit depth : 8 bits
Scan type : Progressive
Bits/(Pixel*Frame) : 0.122
Stream size : 2.87 GiB (80%)
Language : English
Default : Yes
Forced : No
Color range : Limited
Color primaries : BT.709
Transfer characteristics : BT.709
Matrix coefficients : BT.709

Audio #1
ID : 2
Format : AC-3
Format/Info : Audio Coding 3
Mode extension : CM (complete main)
Format settings, Endianness : Big
Codec ID : A_AC3
Duration : 1 h 31 min
Bit rate mode : Constant
Bit rate : 384 kb/s
Channel(s) : 6 channels
Channel positions : Front: L C R, Side: L R, LFE
Sampling rate : 48.0 kHz
Frame rate : 31.250 FPS (1536 spf)
Bit depth : 16 bits
Compression mode : Lossy
Stream size : 251 MiB (7%)
Title : iTunes
Language : Russian
Default : Yes
Forced : No

Audio #2
ID : 3
Format : AC-3
Format/Info : Audio Coding 3
Mode extension : CM (complete main)
Format settings, Endianness : Big
Codec ID : A_AC3
Duration : 1 h 30 min
Bit rate mode : Constant
Bit rate : 384 kb/s
Channel(s) : 6 channels
Channel positions : Front: L C R, Side: L R, LFE
Sampling rate : 48.0 kHz
Frame rate : 31.250 FPS (1536 spf)
Bit depth : 16 bits
Compression mode : Lossy
Stream size : 249 MiB (7%)
Title : AVO
Language : Russian
Default : No
Forced : No

Audio #3
ID : 4
Format : AC-3
Format/Info : Audio Coding 3
Mode extension : CM (complete main)
Format settings, Endianness : Big
Codec ID : A_AC3
Duration : 1 h 30 min
Bit rate mode : Constant
Bit rate : 384 kb/s
Channel(s) : 6 channels
Channel positions : Front: L C R, Side: L R, LFE
Sampling rate : 48.0 kHz
Frame rate : 31.250 FPS (1536 spf)
Bit depth : 16 bits
Compression mode : Lossy
Stream size : 249 MiB (7%)
Title : Original
Language : English
Default : No
Forced : No

Menu
00:00:00.000 : en:Opening Sequence
00:05:34.000 : en:You Make This Yourself?
00:11:19.000 : en:Hired To Kill You
00:18:01.000 : en:Claustrophobic
00:23:18.000 : en:Well Protected
00:28:18.000 : en:Professional Assassin
00:34:05.000 : en:Need Your Strength
00:39:25.000 : en:Her Name's Dani
00:44:38.000 : en:Indestructible
00:50:55.000 : en:How Do You Kill
00:57:15.000 : en:Are You Afraid
01:02:17.000 : en:So Much Trouble
01:07:11.000 : en:The Airport
01:12:38.000 : en:Who I Am
01:18:48.000 : en:Stay With Me
01:23:35.000 : en:End Credits


Свернуть
Скриншоты

Изображение
Изображение
Изображение
Изображение
Изображение
Свернуть
_________________
Изображение
Изображение
Не в сети
Профиль  
 Добавлено: 2017-07-26 14:20 (спустя 1 месяц 3 дня)
Стаж: 3 года 4 месяца
Сообщений: 2
Лайков: 1
как фильм?
Не в сети
Профиль  
 Добавлено: 2017-07-30 09:26 (спустя 3 дня)
Аватара пользователя
Стаж: 9 лет 8 месяцев
Сообщений: 693
Спасибок: 39
Лайков: 92
По описанию обещает быть захватывающще, но я всё же посоветовал бы для начала хотя бы разок фильм то но глянуть, прежде чем оставлять негативный комментарий.
_________________
Иногда я лежу в постели, и мне кажется что ничто не заставит меня встать, а потом чувствую, что подо мной становится мокро и понимаю, что ошибался.
Не в сети
Профиль  
Начать новую темуОтветить на тему  [ Сообщений: 3 ] 
Вы не можете начинать темы
Вы не можете отвечать на сообщения
Вы не можете редактировать свои сообщения
Вы не можете удалять свои сообщения