Начать новую темуОтветить на тему  [ Сообщений: 3 ] 
Торрент файл
Размер: 6.05 GB • Зарегистрирован: 6 месяцев • Статус: * Не проверено
Скачан: 11 раз • Желающих скачать: 0 • Поблагодарили: 0 раз
 Раздают: 0  |  0 KB/s  ]   Качают: 0  |  0 KB/s  ] 
 Полного источника не было 27 дней 
Сообщения
 Добавлено: 2016-06-05 14:52
RG-ELEKTRO
Аватара пользователя
Стаж: 2 года 3 месяца
Сообщений: 7928
Спасибок: 53776
Лайков: 3304
Все, что у меня есть / Freeheld

Изображение

Изображение


Год выпуска: 2015
Страна: США (Double Feature Films)
Жанр: драма, мелодрама, биография
Продолжительность: 01:43:20
Перевод: Профессиональный (дублированный) (iTunes) + Оригинальная звуковая дорожка
Субтитры: Rus, Eng

Режиссёр: Питер Соллетт
В ролях: Джулианна Мур, Эллен Пейдж, Майкл Шеннон, Стив Карелл, Люк Граймс, Гэбриел Луна, Энтони ДеСандо, Скипп Саддат, Джош Чарльз, Кевин О’Рурк
Описание: В опасной работе детектива женщина-полицейский Лорел Хестер полностью доверяет своим напарникам, с которыми она рискует жизнью на злачных улицах Нью-Джерси. Она скрывает от них только одно: свою юную возлюбленную Стейси. Их тихое счастье оказывается под угрозой, когда Лорел впервые встречает препятствие, которое она не в силах преодолеть, — смертельную болезнь. Посвятившая жизнь борьбе за справедливость детектив Хестер вступает в свой последний бой — битву с системой за право оставить наследство женщине, которую любит. Битву, изменившую мир.

Изображение Изображение Изображение
Качество: BDRip 720p
Формат: MKV
Видео кодек: MPEG-4 AVC
Аудио кодек: AC3 / DTS
Видео: MPEG-4 AVC, 6323 Кбит/с, 1280x690, 23,976 fps
Аудио #1: AC3, 384 kb/s (6 ch), 48 kHz [Профессиональный (дублированный) (iTunes)]
Аудио #2: Eng, DTS, 1510 kb/s (6 ch), 48 kHz [Оригинальная звуковая дорожка]
Субтитры: Rus, Eng

"MI"
x264 [info]: frame I:1061 Avg QP:13.65 size:157176
x264 [info]: frame P:28372 Avg QP:15.49 size: 64033
x264 [info]: frame B:119219 Avg QP:15.98 size: 25535

Format : Matroska
Format version : Version 4 / Version 2
File size : 6.05 GiB
Duration : 1h 43mn
Overall bit rate : 8 383 Kbps
Movie name : Все, что у меня есть. (Tonik)
Encoded date : UTC 2016-06-05 06:33:05
Writing application : mkvmerge v7.1.0 ('Good Love') 64bit built on Jul 27 2014 13:06:55
Writing library : libebml v1.3.0 + libmatroska v1.4.1
_STATISTICS_WRITING_APP : mkvmerge v7.1.0 ('Good Love') 64bit built on Jul 27 2014 13:06:55
_STATISTICS_WRITING_DATE_UTC : 2016-06-05 06:33:05
_STATISTICS_TAGS : BPS DURATION NUMBER_OF_FRAMES NUMBER_OF_BYTES
DURATION : 01:33:41.269000000
NUMBER_OF_FRAMES : 1572
NUMBER_OF_BYTES : 74815

Video
ID : 1
Format : AVC
Format/Info : Advanced Video Codec
Format profile : High@L4.1
Format settings, CABAC : Yes
Format settings, ReFrames : 9 frames
Codec ID : V_MPEG4/ISO/AVC
Duration : 1h 43mn
Bit rate : 6 323 Kbps
Width : 1 280 pixels
Height : 690 pixels
Display aspect ratio : 1.85:1
Frame rate mode : Constant
Frame rate : 23.976 fps
Color space : YUV
Chroma subsampling : 4:2:0
Bit depth : 8 bits
Scan type : Progressive
Bits/(Pixel*Frame) : 0.299
Stream size : 4.56 GiB (75%)
Writing library : x264 core 146 r2538kMod 121396c
Encoding settings : cabac=1 / ref=9 / deblock=1:-3:-3 / analyse=0x3:0x133 / me=umh / subme=10 / psy=1 / fade_compensate=0.00 / psy_rd=1.05:0.00 / mixed_ref=1 / me_range=24 / chroma_me=1 / trellis=2 / 8x8dct=1 / cqm=0 / deadzone=21,11 / fast_pskip=0 / chroma_qp_offset=-2 / threads=12 / lookahead_threads=3 / sliced_threads=0 / nr=0 / decimate=0 / interlaced=0 / bluray_compat=0 / constrained_intra=0 / fgo=0 / bframes=11 / b_pyramid=2 / b_adapt=2 / b_bias=0 / direct=3 / weightb=1 / open_gop=0 / weightp=2 / keyint=250 / keyint_min=23 / scenecut=40 / intra_refresh=0 / rc_lookahead=60 / rc=crf / mbtree=0 / crf=16.5000 / qcomp=0.65 / qpmin=0 / qpmax=69 / qpstep=4 / vbv_maxrate=62500 / vbv_bufsize=78125 / crf_max=0.0 / nal_hrd=none / filler=0 / ip_ratio=1.30 / pb_ratio=1.20 / aq=3:0.80
Language : English
Default : Yes
Forced : No
Matrix coefficients : BT.709
_STATISTICS_WRITING_APP : mkvmerge v7.1.0 ('Good Love') 64bit built on Jul 27 2014 13:06:55
_STATISTICS_WRITING_DATE_UTC : 2016-06-05 06:33:05
_STATISTICS_TAGS : BPS DURATION NUMBER_OF_FRAMES NUMBER_OF_BYTES
DURATION : 01:43:20.027000000
NUMBER_OF_FRAMES : 148652
NUMBER_OF_BYTES : 5027742967

Audio #1
ID : 2
Format : AC-3
Format/Info : Audio Coding 3
Mode extension : CM (complete main)
Format settings, Endianness : Big
Codec ID : A_AC3
Duration : 1h 43mn
Bit rate mode : Constant
Bit rate : 384 Kbps
Channel(s) : 6 channels
Channel positions : Front: L C R, Side: L R, LFE
Sampling rate : 48.0 KHz
Bit depth : 16 bits
Compression mode : Lossy
Stream size : 284 MiB (5%)
Language : Russian
Default : Yes
Forced : No

Audio #2
ID : 3
Format : DTS
Format/Info : Digital Theater Systems
Mode : 16
Format settings, Endianness : Big
Codec ID : A_DTS
Duration : 1h 43mn
Bit rate mode : Constant
Bit rate : 1 509 Kbps
Channel(s) : 6 channels
Channel positions : Front: L C R, Side: L R, LFE
Sampling rate : 48.0 KHz
Bit depth : 24 bits
Compression mode : Lossy
Stream size : 1.09 GiB (18%)
Language : English
Default : No
Forced : No

Text #1
ID : 4
Format : UTF-8
Codec ID : S_TEXT/UTF8
Codec ID/Info : UTF-8 Plain Text
Language : Russian
Default : No
Forced : No

Text #2
ID : 5
Format : UTF-8
Codec ID : S_TEXT/UTF8
Codec ID/Info : UTF-8 Plain Text
Language : English
Default : No
Forced : No

Text #3
ID : 6
Format : UTF-8
Codec ID : S_TEXT/UTF8
Codec ID/Info : UTF-8 Plain Text
Title : SDH
Language : English
Default : No
Forced : No

Menu
00:00:00.000 : en:00:00:00.000
00:06:55.624 : en:00:06:55.624
00:13:42.405 : en:00:13:42.405
00:19:45.267 : en:00:19:45.267
00:25:37.995 : en:00:25:37.995
00:30:50.599 : en:00:30:50.599
00:37:01.469 : en:00:37:01.469
00:42:37.513 : en:00:42:37.513
00:48:34.828 : en:00:48:34.828
00:55:25.113 : en:00:55:25.113
01:01:39.863 : en:01:01:39.863
01:09:01.888 : en:01:09:01.888
01:13:44.962 : en:01:13:44.962
01:19:13.207 : en:01:19:13.207
01:24:15.759 : en:01:24:15.759
01:32:30.086 : en:01:32:30.086
Свернуть

Скриншоты
Изображение
Изображение
Изображение
Свернуть
Изображение


Изображение Изображение
Не в сети
Профиль  
 Добавлено: 2016-06-05 19:11 (спустя 4 часа)
Аватара пользователя
Стаж: 8 лет 7 месяцев
Сообщений: 672
Спасибок: 84
Лайков: 84
лесбиянки? это плохо
Не в сети
Профиль  
 Добавлено: 2016-06-05 21:34 (спустя 2 часа 22 минуты)
Аватара пользователя
Стаж: 8 лет 8 месяцев
Сообщений: 1702
Спасибок: 104
Лайков: 152

natangell:

лесбиянки? это плохо
точно... :sh_ok:
Не в сети
Профиль  
Начать новую темуОтветить на тему  [ Сообщений: 3 ] 
Вы не можете начинать темы
Вы не можете отвечать на сообщения
Вы не можете редактировать свои сообщения
Вы не можете удалять свои сообщения