Начать новую темуОтветить на тему  [ 1 сообщение ] 
Торрент файл
Размер: 4.74 GB • Зарегистрирован: 6 месяцев • Статус: * Не проверено
Скачан: 65 раз • Желающих скачать: 0 • Поблагодарили: 13 раз
 Раздают: 0  |  0 KB/s  ]   Качают: 0  |  0 KB/s  ] 
 Полного источника не было 2 дня 1 час 
Сообщения
 Добавлено: 2016-05-31 08:43
RG-ELEKTRO
Аватара пользователя
Стаж: 2 года 3 месяца
Сообщений: 7928
Спасибок: 53786
Лайков: 3304
Все по новой / The Do Over



Изображение


Год выпуска: 2016
Страна: США
Жанр: комедия
Продолжительность: 01:48:15
Перевод: Любительский (многоголосый закадровый)

Режиссёр: Стивен Брилл
В ролях: Адам Сэндлер, Пола Пэттон, Кэтрин Хан, Шон Эстин, Дэвид Спейд, Луис Гусман, Джаред Сэндлер, Ник Свардсон, Рене Тейлор, Мэтт Уолш
Описание: Два неудачника решают имитировать свою смерть, чтобы начать жизнь с чистого листа. Однако их новая жизнь оказывается далеко не лучше прежней.

ИзображениеИзображениеИзображение

ПРИМЕЧАНИЕ: ПРИСУТСТВУЕТ РЕКЛАМА!
Качество: WEB-DL 1080p
Формат: МКV
Видео кодек: MPEG-4 AVC
Аудио кодек: AC3
Видео: 1920x1036 (1.85:1), 23.976 fps, MPEG-4 AVC ~5 521 kbps avg
Аудио #1: 48.0 kHz, AC3 Dolby Digital, 2 ch, ~384 kbps [Любительский (многоголосый закадровый)]
Аудио #2: 48.0 kHz, AC3 Dolby Digital, 6 ch, ~384 kbps | ENG

"MI"
General
Unique ID : 237874474648921843657171886630580916592 (0xB2F4F5166888D2CA879E3A617EEE1170)
Format : Matroska
Format version : Version 4 / Version 2
Overall bit rate mode : Constant
Overall bit rate : 6 416 Kbps
Movie name : MoreFilms
Encoded date : UTC 2016-05-30 19:37:43
Writing application : mkvmerge v8.8.0 ('Wind at my back') 64bit
Writing library : libebml v1.3.3 + libmatroska v1.4.4
DURATION : 00:00:58.304000000
NUMBER_OF_FRAMES : 1822
NUMBER_OF_BYTES : 2798592
_STATISTICS_WRITING_APP : mkvmerge v8.8.0 ('Wind at my back') 64bit
_STATISTICS_WRITING_DATE_UTC : 2016-05-30 19:37:43

Video
ID : 1
Format : AVC
Format/Info : Advanced Video Codec
Format profile : High@L4
Format settings, CABAC : Yes
Format settings, ReFrames : 4 frames
Codec ID : V_MPEG4/ISO/AVC
Bit rate mode : Constant
Bit rate : 5 521 Kbps
Nominal bit rate : 6 000 Kbps
Width : 1 920 pixels
Height : 1 036 pixels
Display aspect ratio : 1.85:1
Frame rate mode : Constant
Frame rate : 23.976 fps
Standard : Component
Color space : YUV
Chroma subsampling : 4:2:0
Bit depth : 8 bits
Scan type : Progressive
Bits/(Pixel*Frame) : 0.116
Stream size : 38.4 MiB (86%)
Default : Yes
Forced : No
Color range : Limited
Color primaries : BT.709
Transfer characteristics : BT.709
Matrix coefficients : BT.709

Audio #1
ID : 2
Format : AC-3
Format/Info : Audio Coding 3
Mode extension : CM (complete main)
Format settings, Endianness : Big
Codec ID : A_AC3
Bit rate mode : Constant
Bit rate : 384 Kbps
Channel(s) : 2 channels
Channel positions : Front: L R
Sampling rate : 48.0 KHz
Compression mode : Lossy
Stream size : 2.67 MiB (6%)
Language : Russian
Default : Yes
Forced : Yes

Audio #2
ID : 3
Format : AC-3
Format/Info : Audio Coding 3
Mode extension : CM (complete main)
Format settings, Endianness : Big
Codec ID : A_AC3
Bit rate mode : Constant
Bit rate : 384 Kbps
Channel(s) : 6 channels
Channel positions : Front: L C R, Side: L R, LFE
Sampling rate : 48.0 KHz
Compression mode : Lossy
Stream size : 2.67 MiB (6%)
Language : English
Default : No
Forced : No
Свернуть

Скриншоты
Изображение
Изображение
Изображение
Свернуть
Изображение


Изображение Изображение
_________________
Не ищите меня в "ВКонтакте", в "Одноклассниках" меня нет - я на трекерах сижу!
Не в сети
Профиль  
Начать новую темуОтветить на тему  [ 1 сообщение ] 
Вы не можете начинать темы
Вы не можете отвечать на сообщения
Вы не можете редактировать свои сообщения
Вы не можете удалять свои сообщения