Начать новую темуОтветить на тему  [ 1 сообщение ] 
Торрент файл
Размер: 7.71 GB • Зарегистрирован: 11 месяцев • Статус: * Не проверено
Скачан: 27 раз • Желающих скачать: 0 • Поблагодарили: 9 раз
 Раздают: 1  |  0 KB/s  ]   Качают: 0  |  0 KB/s  ] 
Сообщения
 Добавлено: 2016-01-04 10:04
RG-ELEKTRO
Аватара пользователя
Стаж: 2 года 3 месяца
Сообщений: 7928
Спасибок: 53773
Лайков: 3304
Я, Эрл и умирающая девушка / Me and Earl and the Dying Girl


Изображение


Год выпуска: 2015
Страна: США (Indian Paintbrush)
Жанр: драма, комедия
Продолжительность: 01:45:12
Перевод: Профессиональный (многоголосый) [iTunes] + Оригинальная звуковая дорожка
Субтитры: Русские, английские

Режиссёр: Альфонсо Гомез-Рейон
В ролях: Томас Манн, АрДжей Сайлер, Оливия Кук, Ник Офферман, Конни Бриттон, Молли Шеннон, Джон Бернтал, К.С. Хьюз, Мэтт Беннетт, Масам Холден
Описание: Грег — подросток, который увлекается постановкой и снимает любительские фильмы. Он посещает старшую школу и старается лишний раз не наживать себе врагов. Большого количества друзей у него нет, есть только коллега Эрл, разделяющий его интересы, с которым они смотрят и переснимают классические киноленты. Волей случая, Грег начинает тесно общаться с одноклассницей, тихой еврейской девочкой Рейчел, у которой обнаружена лейкемия. И в процессе общения случается так, что эти двое становятся незаменимыми друг для друга… Грег пытается оказать поддержку подруге, показывая свои фильмы.

Изображение Изображение
Качество: BDRip 1080p
Формат: MKV
Видео кодек: MPEG-4 AVC
Аудио кодек: AC3
Видео: MPEG-4 AVC, 9466 Кбит/с, 1920x800
Аудио #1: AC3, 6 ch, 384 Кбит/с [Профессиональный (многоголосый)]
Аудио #2: Английский (AC3, 6 ch, 640 Кбит/с) [Оригинальная звуковая дорожка]
Субтитры: Русские, английские

"MI"
Формат : Matroska
Версия формата : Version 2
Размер файла : 7,71 Гбайт
Продолжительность : 1 ч. 45 м.
Общий поток : 10,5 Мбит/сек
Название фильма : ~V ad~
Дата кодирования : UTC 2016-01-04 02:03:41
Программа кодирования : mkvmerge v6.5.0 ('Isn't she lovely') built on Oct 20 2013 12:50:05
Библиотека кодирования : libebml v1.3.0 + libmatroska v1.4.1
Attachements : cover.jpg

Видео
Идентификатор : 1
Формат : AVC
Формат/Информация : Advanced Video Codec
Профиль формата : High@L4.1
Параметр CABAC формата : Да
Параметр ReFrames формата : 5 кадров
Идентификатор кодека : V_MPEG4/ISO/AVC
Продолжительность : 1 ч. 45 м.
Битрейт : 9466 Кбит/сек
Ширина : 1920 пикселей
Высота : 800 пикселей
Соотношение сторон : 2,40:1
Режим частоты кадров : Постоянный
Частота кадров : 23,976 кадра/сек
Цветовое пространство : YUV
Субдискретизация насыщенности : 4:2:0
Битовая глубина : 8 бит
Тип развёртки : Прогрессивная
Бит/(Пиксели*Кадры) : 0.257
Размер потока : 6,80 Гбайт (88%)
Заголовок : ~V~
Библиотека кодирования : x264 core 148 r2579 73ae2d1
Настройки программы : cabac=1 / ref=5 / deblock=1:-3:-3 / analyse=0x3:0x133 / me=umh / subme=11 / psy=1 / psy_rd=1.10:0.03 / mixed_ref=1 / me_range=32 / chroma_me=1 / trellis=2 / 8x8dct=1 / cqm=0 / deadzone=21,11 / fast_pskip=0 / chroma_qp_offset=-3 / threads=12 / lookahead_threads=1 / sliced_threads=0 / nr=0 / decimate=0 / interlaced=0 / bluray_compat=0 / constrained_intra=0 / bframes=10 / b_pyramid=2 / b_adapt=2 / b_bias=0 / direct=3 / weightb=1 / open_gop=0 / weightp=2 / keyint=240 / keyint_min=23 / scenecut=40 / intra_refresh=0 / rc=2pass / mbtree=0 / bitrate=9466 / ratetol=1.0 / qcomp=0.60 / qpmin=0 / qpmax=69 / qpstep=4 / cplxblur=20.0 / qblur=0.5 / ip_ratio=1.40 / pb_ratio=1.30 / aq=1:0.80
Язык : English
Default : Да
Forced : Нет

Аудио #1
Идентификатор : 2
Формат : AC-3
Формат/Информация : Audio Coding 3
Расширение режима : CM (complete main)
Параметр Endianness формата : Big
Идентификатор кодека : A_AC3
Продолжительность : 1 ч. 45 м.
Вид битрейта : Постоянный
Битрейт : 384 Кбит/сек
Каналы : 6 каналов
Расположение каналов : Front: L C R, Side: L R, LFE
Частота : 48,0 КГц
Метод сжатия : С потерями
Размер потока : 289 Мбайт (4%)
Язык : Russian
Default : Да
Forced : Да

Аудио #2
Идентификатор : 3
Формат : AC-3
Формат/Информация : Audio Coding 3
Расширение режима : CM (complete main)
Параметр Endianness формата : Big
Идентификатор кодека : A_AC3
Продолжительность : 1 ч. 45 м.
Вид битрейта : Постоянный
Битрейт : 640 Кбит/сек
Каналы : 6 каналов
Расположение каналов : Front: L C R, Side: L R, LFE
Частота : 48,0 КГц
Метод сжатия : С потерями
Размер потока : 482 Мбайт (6%)
Язык : English
Default : Нет
Forced : Нет

Текст #1
Идентификатор : 4
Формат : UTF-8
Идентификатор кодека : S_TEXT/UTF8
Идентификатор кодека/Информация : UTF-8 Plain Text
Заголовок : Full
Язык : Russian
Default : Нет
Forced : Нет

Текст #2
Идентификатор : 5
Формат : UTF-8
Идентификатор кодека : S_TEXT/UTF8
Идентификатор кодека/Информация : UTF-8 Plain Text
Заголовок : SDH
Язык : English
Default : Нет
Forced : Нет

Текст #3
Идентификатор : 6
Формат : UTF-8
Идентификатор кодека : S_TEXT/UTF8
Идентификатор кодека/Информация : UTF-8 Plain Text
Заголовок : Full
Язык : English
Default : Нет
Forced : Нет

Меню
00:00:00.000 : en:Chapter 01
00:02:26.354 : en:Chapter 02
00:05:53.269 : en:Chapter 03
00:10:20.494 : en:Chapter 04
00:13:29.892 : en:Chapter 05
00:16:01.293 : en:Chapter 06
00:20:07.247 : en:Chapter 07
00:24:04.985 : en:Chapter 08
00:27:11.421 : en:Chapter 09
00:31:05.822 : en:Chapter 10
00:34:25.229 : en:Chapter 11
00:40:26.799 : en:Chapter 12
00:43:33.611 : en:Chapter 13
00:45:32.688 : en:Chapter 14
00:49:24.670 : en:Chapter 15
00:53:10.645 : en:Chapter 16
00:56:38.019 : en:Chapter 17
00:59:28.773 : en:Chapter 18
01:07:09.608 : en:Chapter 19
01:11:29.201 : en:Chapter 20
01:14:16.285 : en:Chapter 21
01:17:58.548 : en:Chapter 22
01:20:43.922 : en:Chapter 23
01:23:17.867 : en:Chapter 24
01:30:29.632 : en:Chapter 25
01:32:48.896 : en:Chapter 26
01:38:36.076 : en:Chapter 27
01:40:10.004 : en:Chapter 28
01:44:21.338 : en:Chapter 29
Свернуть

Скриншоты
Изображение
Изображение
Изображение
Свернуть
Изображение


Изображение Изображение
Не в сети
Профиль  
Начать новую темуОтветить на тему  [ 1 сообщение ] 
Вы не можете начинать темы
Вы не можете отвечать на сообщения
Вы не можете редактировать свои сообщения
Вы не можете удалять свои сообщения