Начать новую темуОтветить на тему  [ 1 сообщение ] 
Торрент файл
Размер: 4.3 GB • Зарегистрирован: 6 месяцев • Статус: * Не проверено
Скачан: 15 раз • Желающих скачать: 0 • Поблагодарили: 2 раза
 Раздают: 0  |  0 KB/s  ]   Качают: 0  |  0 KB/s  ] 
 Полного источника не было 1 месяц 4 дня 
Сообщения
 Добавлено: 2016-05-08 21:52
RG-ELEKTRO
Аватара пользователя
Стаж: 2 года 3 месяца
Сообщений: 7928
Спасибок: 53742
Лайков: 3304
Я - Учитель

Изображение

Изображение


Год выпуска: 2016
Страна: Россия (Компания "Новые люди")
Жанр: Военный, драма
Продолжительность: 01:25:10

Режиссёр: Сергей Мокрицкий
В ролях: Александр Ковтунец, Юлия Пересильд, Андрей Смоляков, Филипп Рейнхардт, Владислав Абашин, Борис Каморзин, Светлана Осадченко, Сергей Походаев
Описание: Жить в непростых военных условиях простому сельскому учителю Павлу Зубову давала вера в свой долг — учить детей. Не важно где, не важно кто они — это его призвание, его крест. Вера в любовь и семью, в простые человеческие ценности. Но, в одночасье, череда событий в корне меняет его жизнь, возвращая в реальный мир. В мир, где идёт война, где враг демонстрирует своё истинное лицо, и где невозможно бездействовать, оставаясь тихим учителем, надо бороться за свою семью, любовь, Родину, за свои идеалы и принципы. Перед ним встает непростой духовный и нравственный выбор — либо выживать и приспосабливаться, либо не предавать самого себя и своих близких.

Изображение Изображение
Качество: HDTV 1080i
Формат: MPEG-TS
Видео кодек: MPEG-4 AVC
Аудио кодек: MP2
Видео: 1920х1080 (16:9), 25 fps, MPEG-4 AVC, High@L4.0, 6616 kbps avg, 0.128 bit/pixel
Аудио #1: 48 kHz, MPEG Layer 2, 2 ch, ~ 192 kbps avg

"MI"
Общее
Идентификатор : 1 (0x1)
Полное имя : C:\Users\Downloads\sendfile.su __ Детали файла_2.ts
Формат : MPEG-TS
Размер файла : 65,7 Мбайт
Продолжительность : 1 м. 2 с.
Режим общего битрейта : Переменный
Общий поток : 8775 Кбит/сек

Видео
Идентификатор : 201 (0xC9)
Идентификатор меню : 2201 (0x899)
Формат : AVC
Формат/Информация : Advanced Video Codec
Профиль формата : High@L4
Параметр CABAC формата : Да
Параметр ReFrames формата : 4 кадра
Идентификатор кодека : 27
Продолжительность : 1 м. 2 с.
Битрейт : 6616 Кбит/сек
Ширина : 1920 пикселей
Высота : 1080 пикселей
Соотношение сторон : 16:9
Частота кадров : 25,000 кадров/сек
Стандарт вещания : Component
Цветовое пространство : YUV
Субдискретизация насыщенности : 4:2:0
Битовая глубина : 8 бит
Тип развёртки : Чересстрочная
Метод сохранения типа развёртки : Раздельные поля
Порядок развёртки : Верхнее поле первое
Бит/(Пиксели*Кадры) : 0.157
Размер потока : 60,9 Мбайт (93%)
Цветовой диапазон : Limited
Основные цвета : BT.709
Характеристики трансфера : BT.709
Коэффициенты матрицы : BT.709

Аудио
Идентификатор : 301 (0x12D)
Идентификатор меню : 2201 (0x899)
Формат : MPEG Audio
Версия формата : Version 1
Профиль формата : Layer 2
Идентификатор кодека : 3
Продолжительность : 1 м. 2 с.
Вид битрейта : Постоянный
Битрейт : 192 Кбит/сек
Каналы : 2 канала
Частота : 48,0 КГц
Метод сжатия : С потерями
Задержка видео : -80 мс.
Размер потока : 1,44 Мбайт (2%)
Язык : English

Свернуть

Скриншоты
Изображение
Изображение
Изображение
Свернуть
Изображение


Изображение Изображение
Не в сети
Профиль  
Начать новую темуОтветить на тему  [ 1 сообщение ] 
Вы не можете начинать темы
Вы не можете отвечать на сообщения
Вы не можете редактировать свои сообщения
Вы не можете удалять свои сообщения