Начать новую темуОтветить на тему  [ 1 сообщение ] 
Торрент файл
Размер: 6.8 GB • Зарегистрирован: 9 месяцев • Статус: * Не проверено
Скачан: 62 раза • Желающих скачать: 0 • Поблагодарили: 12 раз
 Раздают: 1  |  0 KB/s  ]   Качают: 0  |  0 KB/s  ] 
Сообщения
 Добавлено: 2016-02-26 12:17
DVD Release Group
Аватара пользователя
Стаж: 7 лет 1 месяц
Сообщений: 3559
Спасибок: 247266
Лайков: 1018
Зачётный препод 2

Fack ju Gohte 2


Изображение


Год выпуска: 2015
Страна: Германия
Жанр: Комедия
Продолжительность: 01:55:24
Перевод: Профессиональный (полное дублирование) чистый звук
Примечание: Присутствует голосовая и текстовая реклама
Режиссер: Бора Дагтекин
В ролях: Элиас ЭмБаре, Йелла Хаазе, Каролина Херфурт, Катя Риман, Макс фон Гробен, Гизем Эмре, Арам Арами, Анна-Лена Кленке, Лукас Райбер, Руна Грайнер
Описание: Бывший грабитель, а ныне крутой препод в школе Гёте, Зеки Мюллер, обрел популярность среди учеников благодаря нетрадиционным методам преподавания. Не успел он заскучать, заполняя классные журналы и проверяя тетради, как его вовлекли в «войну школ»: для того, чтобы получить статус престижного учебного заведения, необходимо съездить с коррекционным классом старшеклассников в Таиланд, чтобы установить дружеские отношения с местной школой.
Изображение
Sample:
http://sendfile.su/1207818
Качество: BDRip 1080p
Формат: MKV
Видео кодек: H.264
Аудио кодек: AC3, DTS
Видео: 1920x808 24fps 6568kbps
Аудио:
Аудио Rus: AC3 48kHz 2ch 192kbps
Аудио Ger: DTS 48kHz 6ch 384kbps
"MediaInfo"
Формат : Matroska
Версия формата : Version 4 / Version 2
Размер файла : 6,80 Гбайт
Продолжительность : 1 ч. 55 м.
Общий поток : 8437 Кбит/сек
Дата кодирования : UTC 2016-02-26 06:55:25
Программа кодирования : mkvmerge v8.9.0 ('Father Daughter') 64bit
Библиотека кодирования : libebml v1.3.3 + libmatroska v1.4.4
DURATION : 01:55:24.000000000
NUMBER_OF_FRAMES : 649125
NUMBER_OF_BYTES : 1306039500
_STATISTICS_WRITING_APP : mkvmerge v8.9.0 ('Father Daughter') 64bit
_STATISTICS_WRITING_DATE_UTC : 2016-02-26 06:55:25
_STATISTICS_TAGS : BPS DURATION NUMBER_OF_FRAMES NUMBER_OF_BYTES

Видео
Идентификатор : 1
Формат : AVC
Формат/Информация : Advanced Video Codec
Профиль формата : High@L4.1
Параметр CABAC формата : Да
Параметр ReFrames формата : 5 кадров
Идентификатор кодека : V_MPEG4/ISO/AVC
Продолжительность : 1 ч. 55 м.
Битрейт : 6568 Кбит/сек
Ширина : 1920 пикселей
Высота : 808 пикселей
Соотношение сторон : 2,40:1
Режим частоты кадров : Постоянный
Частота кадров : 24,000 кадра/сек
Цветовое пространство : YUV
Субдискретизация насыщенности : 4:2:0
Битовая глубина : 8 бит
Тип развёртки : Прогрессивная
Бит/(Пиксели*Кадры) : 0.176
Размер потока : 5,30 Гбайт (78%)
Библиотека кодирования : x264 core 148 r2665 a01e339
Настройки программы : cabac=1 / ref=5 / deblock=1:-3:-3 / analyse=0x3:0x133 / me=umh / subme=8 / psy=1 / psy_rd=1.00:0.15 / mixed_ref=1 / me_range=16 / chroma_me=1 / trellis=1 / 8x8dct=1 / cqm=0 / deadzone=21,11 / fast_pskip=0 / chroma_qp_offset=-3 / threads=12 / lookahead_threads=2 / sliced_threads=0 / nr=0 / decimate=1 / interlaced=0 / bluray_compat=0 / constrained_intra=0 / bframes=3 / b_pyramid=2 / b_adapt=2 / b_bias=0 / direct=3 / weightb=1 / open_gop=0 / weightp=2 / keyint=240 / keyint_min=24 / scenecut=40 / intra_refresh=0 / rc_lookahead=50 / rc=crf / mbtree=1 / crf=20.0 / qcomp=0.60 / qpmin=0 / qpmax=69 / qpstep=4 / ip_ratio=1.40 / aq=1:1.00
Язык : English
Default : Да
Forced : Нет
DURATION : 01:55:25.001000000
NUMBER_OF_FRAMES : 166200
NUMBER_OF_BYTES : 5828798643
_STATISTICS_WRITING_APP : mkvmerge v8.9.0 ('Father Daughter') 64bit
_STATISTICS_WRITING_DATE_UTC : 2016-02-26 06:55:25
_STATISTICS_TAGS : BPS DURATION NUMBER_OF_FRAMES NUMBER_OF_BYTES

Аудио #1
Идентификатор : 2
Формат : AC-3
Формат/Информация : Audio Coding 3
Расширение режима : CM (complete main)
Параметр Endianness формата : Big
Идентификатор кодека : A_AC3
Продолжительность : 1 ч. 55 м.
Вид битрейта : Постоянный
Битрейт : 192 Кбит/сек
Каналы : 2 канала
Расположение каналов : Front: L R
Частота : 48,0 КГц
Битовая глубина : 16 бит
Метод сжатия : С потерями
Размер потока : 159 Мбайт (2%)
Язык : Russian
Default : Да
Forced : Нет

Аудио #2
Идентификатор : 3
Формат : DTS
Формат/Информация : Digital Theater Systems
Режим : 16
Параметр Endianness формата : Big
Идентификатор кодека : A_DTS
Продолжительность : 1 ч. 55 м.
Вид битрейта : Постоянный
Битрейт : 1509 Кбит/сек
Каналы : 6 каналов
Расположение каналов : Front: L C R, Side: L R, LFE
Частота : 48,0 КГц
Битовая глубина : 24 бит
Метод сжатия : С потерями
Размер потока : 1,22 Гбайт (18%)
Язык : German
Default : Нет
Forced : Нет

Текст
Идентификатор : 4
Формат : UTF-8
Идентификатор кодека : S_TEXT/UTF8
Идентификатор кодека/Информация : UTF-8 Plain Text
Язык : Russian
Default : Да
Forced : Да

Меню
00:00:00.000 : en:00:00:00.000
00:06:46.375 : en:00:06:46.375
00:13:50.667 : en:00:13:50.667
00:18:46.375 : en:00:18:46.375
00:26:16.625 : en:00:26:16.625
00:32:44.583 : en:00:32:44.583
00:37:24.042 : en:00:37:24.042
00:42:59.292 : en:00:42:59.292
00:51:12.250 : en:00:51:12.250
00:57:03.458 : en:00:57:03.458
01:05:25.250 : en:01:05:25.250
01:11:51.125 : en:01:11:51.125
01:17:49.958 : en:01:17:49.958
01:25:56.208 : en:01:25:56.208
01:34:00.208 : en:01:34:00.208
01:39:58.458 : en:01:39:58.458
01:47:26.458 : en:01:47:26.458
Свернуть

"Скриншоты"
Изображение
Изображение
Изображение
Свернуть
Не в сети
Профиль  
Начать новую темуОтветить на тему  [ 1 сообщение ] 
Вы не можете начинать темы
Вы не можете отвечать на сообщения
Вы не можете редактировать свои сообщения
Вы не можете удалять свои сообщения