Начать новую темуОтветить на тему  [ 1 сообщение ] 
Торрент файл
Размер: 22.6 GB • Зарегистрирован: 7 месяцев • Статус: * Не проверено
Скачан: 15 раз • Желающих скачать: 0 • Поблагодарили: 6 раз
 Раздают: 0  |  0 KB/s  ]   Качают: 0  |  0 KB/s  ] 
 Полного источника не было 5 часов 
Сообщения
 Добавлено: 2016-04-15 06:40
RG-ELEKTRO
Аватара пользователя
Стаж: 2 года 3 месяца
Сообщений: 7928
Спасибок: 53801
Лайков: 3304
Здравствуй, папа, Новый год / Daddy's Home

Изображение

Изображение


Год выпуска: 2015
Страна: США
Жанр: Комедия
Продолжительность: 01:36:15
Перевод: Профессиональный (дублированный) [Лицензия]

Режиссёр: Шон Андерс
В ролях: Уилл Феррелл, Марк Уолберг, Линда Карделлини, Томас Хейден Чёрч, Скарлет Эстевез, Оуэн Ваккаро, Бобби Каннавале, Хэннибал Бёресс, Билл Бёрр, Джейми Денбо
Описание: Отец двоих детей возвращается к своей бывшей жене, которая успела выйти замуж, и теперь его ждет соперничество с отчимом за внимание своих отпрысков.

Изображение Изображение
Качество: BDRemux 1080p
Формат: MKV
Видео кодек: MPEG-4 AVC
Аудио кодек: AC3 / DTS-HD MA
Видео: MPEG-4 AVC, 1920x1080, 28.3 Mbit/s, 23.976 fps
Аудио #1: 48.0 Khz, AC3, 5.1, 448 Kbps |Дубляж, Лицензия|
Аудио #2: English: 48.0 Khz, DTS-HD MA, 5.1, 4909 Kbps
Субтитры: Русские, английские

"MI"
Формат : Matroska
Версия формата : Version 4 / Version 2
Размер файла : 22,6 Гбайт
Продолжительность : 1 ч. 36 м.
Режим общего битрейта : Переменный
Общий поток : 33,7 Мбит/сек
Название фильма : Daddy's.Home.2015.BDREMUX.1080p
Дата кодирования : UTC 2016-04-14 16:28:46
Программа кодирования : mkvmerge v8.3.0 ('Over the Horizon') 64bit
Библиотека кодирования : libebml v1.3.1 + libmatroska v1.4.2

Видео
Идентификатор : 1
Формат : AVC
Формат/Информация : Advanced Video Codec
Профиль формата : High@L4.1
Параметр CABAC формата : Да
Параметр ReFrames формата : 4 кадра
Идентификатор кодека : V_MPEG4/ISO/AVC
Продолжительность : 1 ч. 36 м.
Вид битрейта : Переменный
Битрейт : 28,3 Мбит/сек
Максимальный битрейт : 30,4 Мбит/сек
Ширина : 1920 пикселей
Высота : 1080 пикселей
Соотношение сторон : 16:9
Режим частоты кадров : Постоянный
Частота кадров : 23,976 (24000/1001) кадра/сек
Цветовое пространство : YUV
Субдискретизация насыщенности : 4:2:0
Битовая глубина : 8 бит
Тип развёртки : Прогрессивная
Бит/(Пиксели*Кадры) : 0.570
Размер потока : 19,0 Гбайт (84%)
Язык : English
Default : Да
Forced : Нет

Аудио #1
Идентификатор : 2
Формат : AC-3
Формат/Информация : Audio Coding 3
Расширение режима : CM (complete main)
Параметр Endianness формата : Big
Идентификатор кодека : A_AC3
Продолжительность : 1 ч. 36 м.
Вид битрейта : Постоянный
Битрейт : 448 Кбит/сек
Каналы : 6 каналов
Расположение каналов : Front: L C R, Side: L R, LFE
Частота : 48,0 КГц
Частота кадров : 31,250 кадров/сек (1536 spf)
Метод сжатия : С потерями
Размер потока : 308 Мбайт (1%)
Заголовок : DUB
Язык : Russian
Default : Да
Forced : Нет

Аудио #2
Идентификатор : 3
Формат : DTS
Формат/Информация : Digital Theater Systems
Профиль формата : X / MA / Core
Режим : 16
Параметр Endianness формата : Big
Идентификатор кодека : A_DTS
Продолжительность : 1 ч. 36 м.
Вид битрейта : Переменный / Переменный / Постоянный
Битрейт : 4909 Кбит/сек / 4909 Кбит/сек / 1509 Кбит/сек
Каналы : Object Based / 8 каналов / 6 каналов
Расположение каналов : Object Based / Front: L C R, Side: L R, Back: L R, LFE / Front: L C R, Side: L R, LFE
Частота : / 48,0 КГц / 48,0 КГц
Частота кадров : 93,750 кадра/сек (512 spf)
Битовая глубина : / 24 бит / 24 бит
Метод сжатия : / Lossless / Lossy
Размер потока : 3,29 Гбайт (15%)
Язык : English
Default : Нет
Forced : Нет

Текст #1
Идентификатор : 4
Формат : UTF-8
Идентификатор кодека : S_TEXT/UTF8
Идентификатор кодека/Информация : UTF-8 Plain Text
Продолжительность : 1 ч. 30 м.
Битрейт : 151 бит/сек
Count of elements : 1647
Размер потока : 101 Кбайт (0%)
Язык : Russian
Default : Нет
Forced : Нет

Текст #2
Идентификатор : 5
Формат : UTF-8
Идентификатор кодека : S_TEXT/UTF8
Идентификатор кодека/Информация : UTF-8 Plain Text
Продолжительность : 1 ч. 30 м.
Битрейт : 107 бит/сек
Count of elements : 1945
Размер потока : 71,0 Кбайт (0%)
Язык : English
Default : Нет
Forced : Нет
Свернуть

Скриншоты
Изображение
Изображение
Изображение
Свернуть
Изображение


Изображение Изображение
_________________
Не ищите меня в "ВКонтакте", в "Одноклассниках" меня нет - я на трекерах сижу!
Не в сети
Профиль  
Начать новую темуОтветить на тему  [ 1 сообщение ] 
Вы не можете начинать темы
Вы не можете отвечать на сообщения
Вы не можете редактировать свои сообщения
Вы не можете удалять свои сообщения