Начать новую темуОтветить на тему  [ Сообщений: 13 ] 
Торрент файл
Размер: 15.83 GB • Зарегистрирован: 8 месяцев • Статус: * Не проверено
Скачан: 411 раз • Желающих скачать: 0 • Поблагодарили: 76 раз
 Раздают: 3  |  3 KB/s  ]   Качают: 0  |  0 KB/s  ] 
Сообщения
 Добавлено: 2016-03-25 06:47
DVD Release Group
Аватара пользователя
Стаж: 7 лет 1 месяц
Сообщений: 3559
Спасибок: 247362
Лайков: 1018
Звёздные войны: Пробуждение силы

Star Wars: The Force Awakens


Изображение


Год выпуска: 2015
Страна: США
Жанр: Фантастика, фэнтези, боевик, приключения
Продолжительность: 02:18:06
Перевод: Профессиональный (полное дублирование) чистый звук
Субтитры: Английские
Примечание: Релиз без рекламы
Режиссер: Джей Джей Абрамс
В ролях: Джон Бойега, Дэйзи Ридли, Оскар Айзек, Адам Драйвер, Донал Глисон, Харрисон Форд, Марк Хэмилл, Кэрри Фишер, Макс фон Сюдов, Энди Серкис
Описание: Через тридцать лет после гибели Дарта Вейдера и Императора галактика по-прежнему в опасности. Государственное образование Новый Порядок во главе с их таинственным верховным лидером Сноуком и его правой рукой Кайло Реном идёт по стопам Империи, пытаясь захватить всю власть. В это нелёгкое время судьба сводит юную девушку Рей и бывшего штурмовика Нового Порядка Финна с героями времён войны с Империей — Ханом Соло, Чубаккой и Королевой Леей. Вместе они должны дать бой Новому Порядку, однако настаёт тот момент, когда становится очевидно, что лишь джедаи могут остановить Сноука и Кайло Рена. И в галактике в живых остаётся только один…
Изображение Изображение
Качество: BDRip 1080p
Формат: MKV
Видео кодек: H.264
Аудио кодек: AC3, DTS
Видео: 1920x800 23.98fps 14500kbps
Аудио:
Аудио Rus: AC3 48kHz 6ch 384kbps
Аудио Eng: DTS 48kHz 6ch 1510kbps
"MediaInfo"
Формат : Matroska
Версия формата : Version 4 / Version 2
Размер файла : 15,8 Гбайт
Продолжительность : 2 ч. 18 м.
Общий поток : 16,4 Мбит/сек
Название фильма : Star.Wars.Episode.VII.The.Force.Awakens.2015.BDRip.1080p
Дата кодирования : UTC 2016-03-25 00:21:15
Программа кодирования : mkvmerge v8.3.0 ('Over the Horizon') 64bit
Библиотека кодирования : libebml v1.3.1 + libmatroska v1.4.2

Видео
Идентификатор : 1
Формат : AVC
Формат/Информация : Advanced Video Codec
Профиль формата : High@L4.1
Параметр CABAC формата : Да
Параметр ReFrames формата : 5 кадров
Идентификатор кодека : V_MPEG4/ISO/AVC
Продолжительность : 2 ч. 18 м.
Битрейт : 14,5 Мбит/сек
Ширина : 1920 пикселей
Высота : 800 пикселей
Соотношение сторон : 2,40:1
Режим частоты кадров : Постоянный
Частота кадров : 23,976 кадра/сек
Цветовое пространство : YUV
Субдискретизация насыщенности : 4:2:0
Битовая глубина : 8 бит
Тип развёртки : Прогрессивная
Бит/(Пиксели*Кадры) : 0.394
Размер потока : 13,7 Гбайт (86%)
Библиотека кодирования : x264 core 148 r2665kMod a01e339
Настройки программы : cabac=1 / ref=5 / deblock=1:-3:-3 / analyse=0x3:0x133 / me=umh / subme=11 / psy=1 / fade_compensate=0.00 / psy_rd=0.85:0.00 / mixed_ref=1 / me_range=48 / chroma_me=1 / trellis=2 / 8x8dct=1 / cqm=0 / deadzone=21,11 / fast_pskip=0 / chroma_qp_offset=-2 / threads=24 / lookahead_threads=4 / sliced_threads=0 / nr=0 / decimate=0 / interlaced=0 / bluray_compat=0 / constrained_intra=0 / fgo=0 / bframes=8 / b_pyramid=2 / b_adapt=2 / b_bias=0 / direct=3 / weightb=1 / open_gop=0 / weightp=2 / keyint=240 / keyint_min=24 / scenecut=40 / intra_refresh=0 / rc=2pass / mbtree=0 / bitrate=14500 / ratetol=1.0 / qcomp=0.70 / qpmin=0 / qpmax=69 / qpstep=4 / cplxblur=20.0 / qblur=0.5 / ip_ratio=1.20 / pb_ratio=1.20 / aq=3:0.80
Язык : English
Default : Да
Forced : Нет

Аудио #1
Идентификатор : 2
Формат : AC-3
Формат/Информация : Audio Coding 3
Расширение режима : CM (complete main)
Параметр Endianness формата : Big
Идентификатор кодека : A_AC3
Продолжительность : 2 ч. 18 м.
Вид битрейта : Постоянный
Битрейт : 384 Кбит/сек
Каналы : 6 каналов
Расположение каналов : Front: L C R, Side: L R, LFE
Частота : 48,0 КГц
Битовая глубина : 16 бит
Метод сжатия : С потерями
Размер потока : 379 Мбайт (2%)
Язык : Russian
Default : Да
Forced : Нет

Аудио #2
Идентификатор : 3
Формат : DTS
Формат/Информация : Digital Theater Systems
Режим : 16
Параметр Endianness формата : Big
Идентификатор кодека : A_DTS
Продолжительность : 2 ч. 18 м.
Вид битрейта : Постоянный
Битрейт : 1509 Кбит/сек
Каналы : 6 каналов
Расположение каналов : Front: L C R, Side: L R, LFE
Частота : 48,0 КГц
Битовая глубина : 24 бит
Метод сжатия : С потерями
Размер потока : 1,46 Гбайт (9%)
Язык : English
Default : Нет
Forced : Нет

Текст #1
Идентификатор : 4
Формат : UTF-8
Идентификатор кодека : S_TEXT/UTF8
Идентификатор кодека/Информация : UTF-8 Plain Text
Заголовок : English Regular
Язык : English
Default : Нет
Forced : Нет

Текст #2
Идентификатор : 5
Формат : UTF-8
Идентификатор кодека : S_TEXT/UTF8
Идентификатор кодека/Информация : UTF-8 Plain Text
Заголовок : English SDH
Язык : English
Default : Нет
Forced : Нет

Текст #3
Идентификатор : 6
Формат : PGS
Режим смешивания : zlib
Идентификатор кодека : S_HDMV/PGS
Идентификатор кодека/Информация : The same subtitle format used on BDs/HD-DVDs
Язык : English
Default : Нет
Forced : Нет

Меню
00:00:00.000 : en:00:00:00.000
00:00:09.259 : en:00:00:09.259
00:01:43.061 : en:00:01:43.061
00:03:51.857 : en:00:03:51.857
00:06:12.289 : en:00:06:12.289
00:09:33.948 : en:00:09:33.948
00:10:43.560 : en:00:10:43.560
00:12:35.713 : en:00:12:35.713
00:13:39.694 : en:00:13:39.694
00:14:48.221 : en:00:14:48.221
00:16:45.922 : en:00:16:45.922
00:18:04.583 : en:00:18:04.583
00:19:21.535 : en:00:19:21.535
00:21:26.619 : en:00:21:26.619
00:24:03.651 : en:00:24:03.651
00:26:47.022 : en:00:26:47.022
00:29:54.668 : en:00:29:54.668
00:31:49.324 : en:00:31:49.324
00:35:51.775 : en:00:35:51.775
00:36:40.615 : en:00:36:40.615
00:37:45.513 : en:00:37:45.513
00:40:19.250 : en:00:40:19.250
00:43:39.200 : en:00:43:39.200
00:45:29.560 : en:00:45:29.560
00:49:22.918 : en:00:49:22.918
00:51:19.952 : en:00:51:19.952
00:54:13.750 : en:00:54:13.750
00:59:48.794 : en:00:59:48.794
01:04:16.061 : en:01:04:16.061
01:08:37.238 : en:01:08:37.238
01:11:07.221 : en:01:11:07.221
01:15:16.387 : en:01:15:16.387
01:16:49.897 : en:01:16:49.897
01:19:37.523 : en:01:19:37.523
01:20:56.894 : en:01:20:56.894
01:25:36.173 : en:01:25:36.173
01:32:12.569 : en:01:32:12.569
01:35:29.015 : en:01:35:29.015
01:36:34.956 : en:01:36:34.956
01:39:28.629 : en:01:39:28.629
01:41:29.959 : en:01:41:29.959
01:42:57.505 : en:01:42:57.505
01:45:00.002 : en:01:45:00.002
01:50:33.710 : en:01:50:33.710
01:53:39.771 : en:01:53:39.771
01:55:22.165 : en:01:55:22.165
01:58:05.453 : en:01:58:05.453
02:01:05.592 : en:02:01:05.592
02:02:32.679 : en:02:02:32.679
02:07:07.578 : en:02:07:07.578
Свернуть

"Скриншоты"
Изображение
Изображение
Изображение
Свернуть
 Wanted нравится это.
Не в сети
Профиль  
 Добавлено: 2016-03-25 17:46 (спустя 10 часов)
Стаж: 8 лет 6 месяцев
Сообщений: 264
Спасибок: 515
Лайков: 14
Сэнк Ю Вэри Матч!
Не в сети
Профиль  
 Добавлено: 2016-03-25 20:48 (спустя 3 часа)
Аватара пользователя
Стаж: 5 лет 10 месяцев
Возраст: 25
Сообщений: 7
когда будет 3D?
Не в сети
Профиль  
 Добавлено: 2016-03-25 22:25 (спустя 1 час 37 минут)
Аватара пользователя
Стаж: 8 лет 11 месяцев
Сообщений: 517
Спасибок: 39
Лайков: 49
когда будет в 4К?
Не в сети
Профиль  
 Добавлено: 2016-03-25 22:39 (спустя 13 минут)
Стаж: 7 лет 8 месяцев
Сообщений: 195
Лайков: 55
Когда появидся в 8Ю?
 DimanSemm и Andrey-Ka-Da нравится это.
Не в сети
Профиль  
 Добавлено: 2016-03-26 00:03 (спустя 1 час 24 минуты)
Аватара пользователя
Стаж: 6 лет 5 месяцев
Сообщений: 19961
Спасибок: 721
Лайков: 461
Когда появится в России продолжение этого фильма?
_________________
It was I'am ... :jn_pu_sk:
Медали и Ордена
ИзображениеИзображение
Свернуть
Не в сети
Профиль  
 Добавлено: 2016-03-26 16:33 (спустя 16 часов)
Стаж: 7 лет 8 месяцев
Сообщений: 195
Лайков: 55
Когда Россия продолжится в этом фильме?
Не в сети
Профиль  
 Добавлено: 2016-03-26 17:09 (спустя 35 минут)
Стаж: 9 лет 1 месяц
Сообщений: 31
Спасибок: 34
Когда закончится этот флуд?
Не в сети
Профиль  
 Добавлено: 2016-03-29 00:57 (спустя 2 дня 7 часов)
Аватара пользователя
Стаж: 5 лет 8 месяцев
Возраст: 23
Сообщений: 269
Спасибок: 23
Лайков: 3
Только у меня расинхрон звука или нет? Слышатся и английская речь и русская
_________________
Изображение
Не в сети
Профиль  
 Добавлено: 2016-03-30 20:20 (спустя 1 день 19 часов)
Стаж: 3 года 9 месяцев
Сообщений: 3
Ребят как BDRipы на телеке смотреть? на флешке ограничение вроде стоит по размеру файла...
Не в сети
Профиль  
 Добавлено: 2016-03-30 20:36 (спустя 15 минут)
Аватара пользователя
Стаж: 5 лет 3 месяца
Возраст: 29
Сообщений: 470
Спасибок: 779
Лайков: 13
Ava001
можно подключить комп по hdmi кабелю и включить телек как монитор, или форматнуть флешку в ntfs, там нет ограничения. лишь бы телек такой файл потом съел
_________________
Ростелеком в частном доме
Изображение
Не в сети
Профиль  
 Добавлено: 2016-03-31 00:51 (спустя 4 часа)
Аватара пользователя
Стаж: 7 лет 4 месяца
Сообщений: 54
Спасибок: 10
Ava001
или Home Media Server установи и по сети, только лучше по кабелю через роутер, по wifi тормозить будет скорее всего

релизеру СПАСИБО
Не в сети
Профиль  
 Добавлено: 2016-08-06 20:28 (спустя 4 месяца 6 дней)
Стаж: 7 лет 3 месяца
Сообщений: 4
Со звуком та же беда, слышно и англ и русский перевод, из-за этого местами вообще не понятно что говорят.
Не в сети
Профиль  
Начать новую темуОтветить на тему  [ Сообщений: 13 ] 
Вы не можете начинать темы
Вы не можете отвечать на сообщения
Вы не можете редактировать свои сообщения
Вы не можете удалять свои сообщения