Начать новую темуОтветить на тему  [ Сообщений: 4 ] 
Торрент файл
Размер: 339.4 MB • Зарегистрирован: 6 лет 10 месяцев • Статус: Проверено
Скачан: 239 раз • Желающих скачать: 0 • Поблагодарили: 48 раз
 Раздают: 0  |  0 KB/s  ]   Качают: 0  |  0 KB/s  ] 
 Полного источника не было 1 год 
Сообщения
 Добавлено: 2010-11-15 20:00
Аватара пользователя
Стаж: 9 лет 3 месяца
Возраст: 39
Сообщений: 1674
Спасибок: 16659
Лайков: 7
Изображение
Antonio Vivaldi
Le Quattro Stagioni • The Four Seasons • Времена года & 3 Violin concertos
Giuliano Carmignola - Venice Baroque Orchestra & Andrea Marcon

Жанр: Classical / Baroque
Год выпуска диска: 2000
Производитель диска: SONY CLASSICAL
Аудио кодек: FLAC
Тип рипа: image+.cue
Битрейт аудио: lossless
Продолжительность: 71:28

Исполнители: Giuliano Carmignola - baroque violin; Andrea Marcon - harpsichord, organ; Venice Baroque Orchestra; дирижер - Andrea Marcon

Трэклист:
Le Quattro Stagioni • The Four Seasons • Времена года - Concertos for violin, strings and basso continuo, Op.8, Nos.1-4
  • La Primavera / Весна - Concerto No.1 in E major, RV 269
  • L'estate / Лето - Concerto No.2 in G minor, RV 315
  • L'autunno / Осень - Concerto No.3 in F major, RV 293
  • L'inverno / Зима - Concerto No.4 in F minor, RV 297
3 Violin concertos Premiere Recording
  • Concerto in E-flat major, RV 257
  • Concerto in B-flat major, RV 376
  • Concerto in D major, RV 211

  • По мнению многих экспертов, критиков и просто слушателей - это лучшая запись "Времен года" Вивальди.
  • ...это - самое впечатляющее исполнение Времен года, которое я когда-либо слышал в записи. Выберите место - любое, которое Вам нравится. Попробуйте Presto из концерта "Лето": Вы никогда не слышали несущиеся гаммы, играемые с такой великолепной яростью и головокружительной скоростью. Или слушайте открывающее "Зиму" Allegro: Вы получите озноб, даже если за окном за 30. ...Они не просто играют эту музыку, они владеют ею. Они действительно нашли способ заставить пресытившихся слушателей воспрянуть духом и признать, что старое поистине может быть сделано новым. Я обещал себе, что никогда больше не буду переслушивать все свои записи Времен года в один вечер - но я только что сделал это (все 12), и ... я доволен, что, если бы я избавился от всего остального, эта версия хорошо служила бы мне до конца моих дней. ...Вы действительно не слышали сердце и душу этой музыки, если Вы не слышали это. - David Vernier, Classics Today
  • Это потрясающий диск - не причудливый трюк, не полураздетая суперзвезда на обложке, только яркое исполнение и прекрасная музыка. - Jason Verlinde Amazon.com
  • Венецианский Оркестр Барокко играет всю эту музыку с теплотой, виртуозностью, и прекрасным, поющим тоном. - David Hurwitz, Classics Today

EAC Log
Exact Audio Copy V0.99 prebeta 4 from 23. January 2008
Отчёт EAC об извлечении, выполненном 25. марта 2009, 17:57
Giuliano Carmignola - Venice Baroque Orchestra & Andrea Marcon / Antonio Vivaldi: The Four Seasons & 3 Violin Concertos
Дисковод: BENQ DVD DD DW1620 Adapter: 0 ID: 0
Режим чтения : Достоверность
Использование точного потока : Да
Отключение кэша аудио : Да
Использование указателей C2 : Нет
Коррекция смещения при чтении : 618
Способность читать области Lead-in и Lead-out : Нет
Заполнение пропущенных сэмплов тишиной : Да
Удаление блоков с тишиной в начале и конце : Нет
При вычислениях CRC использовались нулевые сэмплы : Да
Интерфейс : Встроенный Win32-интерфейс для Win NT/2000
Выходной формат : Внутренние WAV-операции
Формат сэмплов : 44.100 Гц; 16 бит; стерео
TOC извлечённого CD
Трек | Старт | Длительность | Начальный сектор | Конечный сектор
---------------------------------------------------------------------
1 | 0:00.00 | 3:20.07 | 0 | 15006
2 | 3:20.07 | 2:18.18 | 15007 | 25374
3 | 5:38.25 | 3:40.22 | 25375 | 41896
4 | 9:18.47 | 4:57.58 | 41897 | 64229
5 | 14:16.30 | 2:18.00 | 64230 | 74579
6 | 16:34.30 | 2:20.60 | 74580 | 85139
7 | 18:55.15 | 4:34.27 | 85140 | 105716
8 | 23:29.42 | 3:21.50 | 105717 | 120841
9 | 26:51.17 | 2:53.58 | 120842 | 133874
10 | 29:45.00 | 3:05.02 | 133875 | 147751
11 | 32:50.02 | 1:47.40 | 147752 | 155816
12 | 34:37.42 | 2:47.33 | 155817 | 168374
13 | 37:25.00 | 4:26.05 | 168375 | 188329
14 | 41:51.05 | 2:32.60 | 188330 | 199789
15 | 44:23.65 | 3:04.55 | 199790 | 213644
16 | 47:28.45 | 4:26.05 | 213645 | 233599
17 | 51:54.50 | 2:24.57 | 233600 | 244456
18 | 54:19.32 | 3:01.03 | 244457 | 258034
19 | 57:20.35 | 5:15.40 | 258035 | 281699
20 | 62:36.00 | 3:22.35 | 281700 | 296884
21 | 65:58.35 | 5:29.60 | 296885 | 321619
Характеристики диапазона извлечения и сообщения об ошибках
Выбранный диапазон
Имя файла D:\RIP\Giuliano Carmignola - Vivaldi The Four Seasons.wav
Пиковый уровень 94.9 %
Качество диапазона 100.0 %
CRC копии BEDEB6F7
Копирование... OK
Ошибок не произошло
AccurateRip: сводка
Трек 1 точное извлечение (доверие 5) [40A2095D]
Трек 2 точное извлечение (доверие 5) [40163310]
Трек 3 точное извлечение (доверие 5) [886CB406]
Трек 4 точное извлечение (доверие 5) [A49A03D0]
Трек 5 точное извлечение (доверие 5) [74F9A6FC]
Трек 6 точное извлечение (доверие 5) [0FD7C1AB]
Трек 7 точное извлечение (доверие 5) [F399A680]
Трек 8 точное извлечение (доверие 5) [ED2BBBCC]
Трек 9 точное извлечение (доверие 5) [89727175]
Трек 10 точное извлечение (доверие 5) [8F6FCE53]
Трек 11 точное извлечение (доверие 5) [2018E43E]
Трек 12 точное извлечение (доверие 5) [79F5AE66]
Трек 13 точное извлечение (доверие 5) [E1DD9D16]
Трек 14 точное извлечение (доверие 5) [7CEFF0B9]
Трек 15 точное извлечение (доверие 5) [75053394]
Трек 16 точное извлечение (доверие 5) [1FA8D480]
Трек 17 точное извлечение (доверие 5) [10D1081E]
Трек 18 точное извлечение (доверие 5) [7437F876]
Трек 19 точное извлечение (доверие 5) [CA1C3262]
Трек 20 точное извлечение (доверие 5) [DB70D671]
Трек 21 точное извлечение (доверие 5) [F8B95CF4]
Все треки извлечены точно
Конец отчёта
Свернуть
Не в сети
Профиль  
 Добавлено: 2010-11-16 19:51 (спустя 23 часа)
Аватара пользователя
Стаж: 9 лет 3 месяца
Возраст: 39
Сообщений: 1674
Спасибок: 16659
Лайков: 7
Это действительно лучшее исполнение "Времен...". По крайней мере из тех, что слышал я.
Не в сети
Профиль  
 Добавлено: 2011-04-07 16:30 (спустя 4 месяца 20 дней)
Аватара пользователя
Стаж: 8 лет 3 месяца
Возраст: 43
Сообщений: 15
Спасибок: 201
Исполнение действительно виртуозное... спасибо
_________________
Изображениеurl]
Не в сети
Профиль  
 Добавлено: 2016-07-03 22:06 (спустя 5 лет 2 месяца)
Стаж: 8 лет 5 месяцев
Сообщений: 12
Парни, встаньте на раздачу, плиз
Не в сети
Профиль  
Начать новую темуОтветить на тему  [ Сообщений: 4 ] 
Вы не можете начинать темы
Вы не можете отвечать на сообщения
Вы не можете редактировать свои сообщения
Вы не можете удалять свои сообщения