Начать новую темуОтветить на тему  [ Сообщений: 2 ] 
Торрент файл
Размер: 560.4 MB • Зарегистрирован: 4 года 10 месяцев • Статус: Проверено
Скачан: 78 раз • Желающих скачать: 0 • Поблагодарили: 29 раз
 Раздают: 0  |  0 KB/s  ]   Качают: 0  |  0 KB/s  ] 
 Полного источника не было 10 месяцев 
Сообщения
 Добавлено: 2012-11-10 22:15
Стаж: 6 лет 11 месяцев
Сообщений: 190
Спасибок: 2647
Лайков: 9
Изображение

Лего: Звездные войны: Империя наносит удар / Lego: Star wars: The Empire strikes out


Год выпуска: 2012
Страна: США
Жанр: мультфильм, приключения

Продолжительность: 00:21:08
Перевод: Профессиональный (полное дублирование), cубтитры: отсутствуют

Режиссер: Гай Василович
Описание: Во времена гражданской войны Галактическая империя угрожала подавить народное восстание с помощью совершенного оружия: Звезды смерти. Принцесса Лиа и повстанческий альянс одержали важную победу, но праздновать некогда. Чтобы избежать преследования за уничтожение Звезды смерти они принимают решение эвакуироваться на секретную базу, которая находится на Хоте…

Качество: HDTVRip
Формат: MKV, H.264, AC3
Видео: 1280 x 720 (16:9), 25 fps, AVC ~3049 kbps avg, 0.132 bit/pixel
Аудио1: Русский 48 kHz, AC3 Dolby Digital, 2/0 (L,R) ch, ~192 kbps | Дубляж

Аудио2: Английский 48 kHz, AC3 Dolby Digital, 6 ch, ~384 kbps | оригинал
MI
Общее
Уникальный идентификатор : 226948561080317709577730660480150120117 (0xAABCB3F5519D6B51846EA48AD947A6B5)
Полное имя : G:\з.загрузки\Lego. Star wars. The Empire strikes out.2012.HDTVRip 720p.DUB+ENG.mkv
Формат : Matroska
Версия формата : Version 2
Размер файла : 560 Мбайт
Продолжительность : 21 м.
Общий поток : 3699 Кбит/сек
Дата кодирования : UTC 2012-11-01 13:08:43
Программа кодирования : mkvmerge v5.7.0 ('The Whirlwind') built on Jul 8 2012 20:08:51
Библиотека кодирования : libebml v1.2.3 + libmatroska v1.3.0

Видео
Идентификатор : 1
Формат : AVC
Формат/Информация : Advanced Video Codec
Профиль формата : High@L4.1
Параметр CABAC формата : Да
Параметр ReFrames формата : 5 кадров
Идентификатор кодека : V_MPEG4/ISO/AVC
Продолжительность : 21 м.
Битрейт : 3049 Кбит/сек
Ширина : 1280 пикс.
Высота : 720 пикс.
Соотношение сторон : 16:9
Частота кадров : 25,000 кадр/сек
Цветовое пространство : YUV
Подвыборка цветности : 4:2:0
Битовая глубина : 8 бит
Тип развёртки : Прогрессивная
Бит/(Пиксели*Кадры) : 0.132
Размер потока : 462 Мбайт (82%)
Библиотека кодирования : x264 core 128 r2216 198a7ea
Настройки программы : cabac=1 / ref=5 / deblock=1:1:1 / analyse=0x3:0x113 / me=umh / subme=8 / psy=1 / psy_rd=1.00:0.00 / mixed_ref=1 / me_range=16 / chroma_me=1 / trellis=1 / 8x8dct=1 / cqm=0 / deadzone=21,11 / fast_pskip=1 / chroma_qp_offset=-2 / threads=18 / lookahead_threads=3 / sliced_threads=0 / nr=0 / decimate=1 / interlaced=0 / bluray_compat=0 / constrained_intra=0 / bframes=3 / b_pyramid=2 / b_adapt=2 / b_bias=0 / direct=2 / weightb=1 / open_gop=0 / weightp=2 / keyint=250 / keyint_min=25 / scenecut=40 / intra_refresh=0 / rc_lookahead=50 / rc=crf / mbtree=1 / crf=18.0 / qcomp=0.60 / qpmin=0 / qpmax=69 / qpstep=4 / ip_ratio=1.40 / aq=1:1.00
Язык : English

Аудио #1
Идентификатор : 2
Формат : AC-3
Формат/Информация : Audio Coding 3
Расширение режима : CM (complete main)
Идентификатор кодека : A_AC3
Продолжительность : 21 м.
Вид битрейта : Постоянный
Битрейт : 192 Кбит/сек
Каналы : 2 канала
Расположение каналов : Front: L R
Частота : 48,0 КГц
Битовая глубина : 16 бит
Метод сжатия : С потерями
Размер потока : 29,1 Мбайт (5%)
Заголовок : DUB (Невафильм)
Язык : Russian

Аудио #2
Идентификатор : 3
Формат : AC-3
Формат/Информация : Audio Coding 3
Расширение режима : CM (complete main)
Идентификатор кодека : A_AC3
Продолжительность : 21 м.
Вид битрейта : Постоянный
Битрейт : 384 Кбит/сек
Каналы : 6 каналов
Расположение каналов : Front: L C R, Side: L R, LFE
Частота : 48,0 КГц
Битовая глубина : 16 бит
Метод сжатия : С потерями
Размер потока : 58,2 Мбайт (10%)
Заголовок : ENG
Язык : English
Свернуть

Скриншоты

Изображение
Изображение
Изображение
Свернуть
Не в сети
Профиль  
 Добавлено: 2016-09-16 19:32 (спустя 3 года 10 месяцев)
Стаж: 9 лет 5 месяцев
Сообщений: 15
Лайков: 1
Дайте газку, плз, Братцы!) :bra_vo:
Не в сети
Профиль  
Начать новую темуОтветить на тему  [ Сообщений: 2 ] 
Вы не можете начинать темы
Вы не можете отвечать на сообщения
Вы не можете редактировать свои сообщения
Вы не можете удалять свои сообщения