Начать новую темуОтветить на тему  [ Сообщений: 3 ] 
Торрент файл
Размер: 741.3 MB • Зарегистрирован: 4 года 11 месяцев • Статус: Проверено
Скачан: 86 раз • Желающих скачать: 0 • Поблагодарили: 42 раза
 Раздают: 0  |  0 KB/s  ]   Качают: 0  |  0 KB/s  ] 
 Полного источника не было 46 минут 
Сообщения
 Добавлено: 2012-10-12 21:41
Аватара пользователя
Стаж: 8 лет 11 месяцев
Возраст: 28
Сообщений: 176
Спасибок: 971
Лайков: 1
38 попугаев

Изображение

Изображение

Год выпуска: 1976-1979
Страна: CCCР
Студия: Союзмультфильм
Жанр: мультфильм, комедия, семейный
Продолжительность: 10 ~ 00:09:00
Режиссер: Иван Уфимцев
Количество серий: 10 из 10
Роли озвучивали: Надежда Румянцева, Михаил Козаков, Василий Ливанов, Всеволод Ларионов...

Описание: Веселые истории о забавных приключениях четырех друзей — болтливой Мартышки, застенчивого Слоненка, разумного Попугая и задумчивого Удава.


Внимание! Полная реставрация изображения и звука!

Раздача группы: Изображение

Изображение

Качество: DVDRip
Формат: AVI
Видео: 624x464 (4:3), 25 fps, XviD ~ 1063 kbps avg, 0.147 bit/pixel
Аудио: 48 kHz, MP3, 2 ch, 128.00 kbps

MI
Полное имя : 38.popugaev.1976.DVDRip_[YouTracker]_by_AVP_Studio.avi
Формат : AVI
Формат/Информация : Audio Video Interleave
Размер файла : 67,0 Мбайт
Продолжительность : 7 м. 48 с.
Общий поток : 1200 Кбит/сек
Программа кодирования : VirtualDubMod 1.5.10.3 | http://www.virtualdub-fr.org || (build 2550/release)
Библиотека кодирования : VirtualDubMod build 2550/release

Видео
Идентификатор : 0
Формат : MPEG-4 Visual
Профиль формата : Advanced Simple@L5
Параметр BVOP формата : 1
Параметр QPel формата : Нет
Параметр GMC формата : Без точки перехода
Параметр матрицы формата : Выборочная
Идентификатор кодека : XVID
Идентификатор кодека/Подсказка : XviD
Продолжительность : 7 м. 48 с.
Битрейт : 1063 Кбит/сек
Ширина : 624 пикселя
Высота : 464 пикселя
Соотношение сторон : 4:3
Частота кадров : 25,000 кадров/сек
Цветовое пространство : YUV
Субдискретизация насыщенности : 4:2:0
Битовая глубина : 8 бит
Тип развёртки : Прогрессивная
Метод сжатия : С потерями
Бит/(Пиксели*Кадры) : 0.147
Размер потока : 59,3 Мбайт (89%)
Библиотека кодирования : XviD 65

Аудио
Идентификатор : 1
Формат : MPEG Audio
Версия формата : Version 1
Профиль формата : Layer 3
Идентификатор кодека : 55
Идентификатор кодека/Подсказка : MP3
Продолжительность : 7 м. 48 с.
Вид битрейта : Постоянный
Битрейт : 128 Кбит/сек
Каналы : 2 канала
Частота : 48,0 КГц
Метод сжатия : С потерями
Размер потока : 7,14 Мбайт (11%)
Выравнивание : Соединение по промежуткам
Продолжительность промежутка : 40 мс. (1,00 видеокадр)
Время предзагрузки промежутка : 504 мс.
Библиотека кодирования : L3.99r
Настройки программы : -m s -V 4 -q 2 -lowpass 17 -b 128
Свернуть
Скриншоты
Изображение
Изображение
Изображение
Свернуть
Список серий
38 попугаев; 1976
Куда идет слоненок; 1977
Как лечить удава?; 1977
Бабушка удава; 1977
А вдруг получится!..; 1978
Великое закрытие; 1985
Привет мартышке; 1978
Ненаглядное пособие; 1991
Зарядка для хвоста; 1979
Завтра будет завтра. 1979
Свернуть
Не в сети
Профиль  
 Добавлено: 2012-10-12 21:50 (спустя 8 минут)
Аватара пользователя
Стаж: 5 лет 11 месяцев
Возраст: 35
Сообщений: 1296
Лайков: 22
СПС :co_ol: :co_ol: :co_ol: :co_ol: :co_ol: :co_ol: :co_ol: :co_ol: :co_ol: :co_ol: :co_ol: :co_ol: :co_ol: :co_ol: :co_ol:
ps:уже :ze_va_et:
Не в сети
Профиль  
 Добавлено: 2012-10-13 21:11 (спустя 23 часа)
Аватара пользователя
Стаж: 8 лет 11 месяцев
Возраст: 28
Сообщений: 176
Спасибок: 971
Лайков: 1
DIMDIMISH
стараемся :a_g_a:
Не в сети
Профиль  
Начать новую темуОтветить на тему  [ Сообщений: 3 ] 
Вы не можете начинать темы
Вы не можете отвечать на сообщения
Вы не можете редактировать свои сообщения
Вы не можете удалять свои сообщения